<?xml version="1.0" standalone="no"?>
<!DOCTYPE svg PUBLIC "-//W3C//DTD SVG 1.1//EN" "http://www.w3.org/Graphics/SVG/1.1/DTD/svg11.dtd" >
<svg xmlns="http://www.w3.org/2000/svg">
<metadata>Generated by IcoMoon</metadata>
<defs>
<font id="fontop" horiz-adv-x="1024">
<font-face units-per-em="1024" ascent="960" descent="-64" />
<missing-glyph horiz-adv-x="1024" />
<glyph unicode="&#x20;" horiz-adv-x="512" d="" />
<glyph unicode="&#xe900;" glyph-name="accessibility" d="M912 336v-144c0-55.398-6.519-106.078-18.321-142.72-1.852-6.097-4.898-11.763-8.96-16.67-4.066-4.907-9.067-8.956-14.711-11.913-5.645-2.953-11.823-4.753-18.172-5.295s-12.74 0.183-18.807 2.138c-6.063 1.954-11.678 5.099-16.516 9.246-4.838 4.143-8.802 9.212-11.661 14.908s-4.553 11.9-4.988 18.257c-0.435 6.357 0.401 12.74 2.458 18.769 8.559 26.598 13.679 68.962 13.679 113.28v144c0 8.486-3.371 16.627-9.374 22.626-5.999 6.003-14.14 9.374-22.626 9.374s-16.627-3.371-22.626-9.374c-6.003-5.999-9.374-14.14-9.374-22.626v-16c0-12.732-5.056-24.939-14.059-33.941s-21.21-14.059-33.941-14.059c-12.732 0-24.939 5.056-33.941 14.059s-14.059 21.21-14.059 33.941v80c0 8.486-3.371 16.627-9.374 22.626-5.999 6.003-14.14 9.374-22.626 9.374s-16.627-3.371-22.626-9.374c-6.003-5.999-9.374-14.14-9.374-22.626v-48c0-12.732-5.056-24.939-14.059-33.941s-21.21-14.059-33.941-14.059c-12.732 0-24.939 5.056-33.941 14.059s-14.059 21.21-14.059 33.941v272c0 8.487-3.371 16.626-9.374 22.627-5.999 6.001-14.14 9.373-22.626 9.373s-16.627-3.372-22.626-9.373c-6.003-6.001-9.374-14.141-9.374-22.627v-432c-0.013-10.419-3.413-20.553-9.693-28.873-6.279-8.316-15.095-14.362-25.114-17.225s-20.698-2.389-30.424 1.353c-9.726 3.738-17.97 10.543-23.488 19.383l-75.56 121.361c-4.201 7.39-11.165 12.804-19.361 15.061-8.195 2.253-16.95 1.161-24.339-3.042-7.389-4.198-12.806-11.166-15.060-19.358-2.255-8.196-1.161-16.951 3.040-24.341l101.080-167.522c6.572-10.906 8.543-23.974 5.478-36.331-3.064-12.361-10.912-22.993-21.818-29.568-10.906-6.571-23.975-8.542-36.334-5.478s-22.993 10.914-29.566 21.82l-101.72 168.798c-15.883 27.499-20.979 59.913-14.298 90.957 6.68 31.040 24.66 58.492 50.448 77.022 25.787 18.526 57.54 26.807 89.091 23.236 31.552-3.575 60.649-18.748 81.639-42.573v267.319c0 33.948 13.486 66.505 37.49 90.51s56.564 37.49 90.509 37.49c33.95 0 66.505-13.486 90.509-37.49s37.491-56.562 37.491-90.51v-100.002c28.604 7.386 58.88 4.646 85.696-7.748 26.812-12.39 48.516-33.681 61.423-60.25 19.375 7.253 40.218 9.702 60.745 7.138 20.531-2.564 40.132-10.065 57.126-21.862 16.994-11.793 30.874-27.533 40.457-45.871 9.579-18.334 14.575-38.716 14.554-59.405zM224 576c12.73 0 24.94 5.057 33.941 14.059s14.059 21.211 14.059 33.941c0 50.921 20.229 99.758 56.236 135.764s84.843 56.236 135.764 56.236c50.923 0 99.759-20.229 135.765-56.236s56.235-84.843 56.235-135.764c0-12.73 5.056-24.94 14.059-33.941s21.21-14.059 33.941-14.059c12.732 0 24.939 5.057 33.941 14.059s14.059 21.211 14.059 33.941c0 76.382-30.34 149.636-84.352 203.647s-127.266 84.353-203.648 84.353c-76.382 0-149.636-30.343-203.646-84.353s-84.353-127.264-84.353-203.647c0-12.73 5.057-24.94 14.059-33.941s21.21-14.059 33.941-14.059z" />
<glyph unicode="&#xe901;" glyph-name="active_card" d="M917.333 874.667c0 23.564-19.102 42.667-42.667 42.667s-42.667-19.103-42.667-42.667v-256c0-23.564 19.102-42.667 42.667-42.667s42.667 19.103 42.667 42.667v256zM853.333 490.667c-23.565 0-42.667-19.102-42.667-42.667v-42.667c0-23.565 19.102-42.667 42.667-42.667h42.667c23.565 0 42.667 19.102 42.667 42.667v42.667c0 23.565-19.102 42.667-42.667 42.667h-42.667zM170.667 618.667c0 23.564 19.103 42.667 42.667 42.667h490.667c23.565 0 42.667 19.103 42.667 42.667s-19.102 42.667-42.667 42.667h-490.667c-70.692 0-128-57.308-128-128v-384c0-70.694 57.308-128 128-128h597.333c70.694 0 128 57.306 128 128v21.342c0 23.565-19.102 42.667-42.667 42.667s-42.667-19.102-42.667-42.667v-21.342c0-23.565-19.102-42.667-42.667-42.667h-597.333c-23.564 0-42.667 19.102-42.667 42.667v213.333l533.333 0.009c23.565 0.004 42.667 19.106 42.667 42.667v42.658c0 23.564-19.102 42.667-42.667 42.667h-533.333v42.667z" />
<glyph unicode="&#xe902;" glyph-name="add_bill" d="M298.667 789.333c-23.564 0-42.667-19.103-42.667-42.667v-580.804l71.841 23.949c9.574 3.191 19.969 2.884 29.338-0.862l90.821-36.331 90.82 36.331c10.172 4.066 21.521 4.066 31.693 0l106.667-42.667c21.879-8.751 32.521-33.583 23.77-55.462s-33.583-32.521-55.462-23.77l-90.82 36.331-90.82-36.331c-10.172-4.066-21.521-4.066-31.693 0l-92.155 36.864-113.173-37.726c-13.011-4.335-27.314-2.155-38.44 5.867-11.126 8.017-17.719 20.898-17.719 34.611v640c0 70.692 57.308 128 128 128h512c70.694 0 128-57.308 128-128v-234.667c0-23.565-19.102-42.667-42.667-42.667s-42.667 19.102-42.667 42.667v234.667c0 23.564-19.102 42.667-42.667 42.667h-512zM512 618.667c0 23.564 19.102 42.667 42.667 42.667h170.667c23.565 0 42.667-19.103 42.667-42.667s-19.102-42.667-42.667-42.667h-170.667c-23.565 0-42.667 19.103-42.667 42.667zM426.667 490.667c0 23.565 19.102 42.667 42.667 42.667h256c23.565 0 42.667-19.102 42.667-42.667s-19.102-42.667-42.667-42.667h-256c-23.565 0-42.667 19.102-42.667 42.667zM896 362.667c0 23.565-19.102 42.667-42.667 42.667s-42.667-19.102-42.667-42.667v-85.333h-85.333c-23.565 0-42.667-19.102-42.667-42.667s19.102-42.667 42.667-42.667h85.333v-85.333c0-23.565 19.102-42.667 42.667-42.667s42.667 19.102 42.667 42.667v85.333h85.333c23.565 0 42.667 19.102 42.667 42.667s-19.102 42.667-42.667 42.667h-85.333v85.333z" />
<glyph unicode="&#xe903;" glyph-name="add_box" d="M469.333 874.667c-212.077 0-384-171.923-384-384v-85.333c0-212.079 171.923-384 384-384h85.333c212.079 0 384 171.921 384 384v85.333c0 212.077-171.921 384-384 384h-85.333zM170.667 490.667c0 164.949 133.718 298.667 298.667 298.667h85.333c164.949 0 298.667-133.718 298.667-298.667v-85.333c0-164.949-133.717-298.667-298.667-298.667h-85.333c-164.949 0-298.667 133.717-298.667 298.667v85.333zM554.667 618.667c0 23.564-19.102 42.667-42.667 42.667s-42.667-19.103-42.667-42.667v-128h-128c-23.564 0-42.667-19.102-42.667-42.667s19.103-42.667 42.667-42.667h128v-128c0-23.565 19.102-42.667 42.667-42.667s42.667 19.102 42.667 42.667v128h128c23.565 0 42.667 19.102 42.667 42.667s-19.102 42.667-42.667 42.667h-128v128z" />
<glyph unicode="&#xe904;" glyph-name="add_card" d="M213.333 789.333h597.333c70.694 0 128-57.308 128-128v-192c0-23.565-19.102-42.667-42.667-42.667s-42.667 19.102-42.667 42.667v21.333h-682.667v-213.333c0-23.565 19.103-42.667 42.667-42.667h298.667c23.565 0 42.667-19.102 42.667-42.667s-19.102-42.667-42.667-42.667h-298.667c-70.692 0-128 57.306-128 128v384c0 70.692 57.308 128 128 128zM170.667 618.667h682.667v42.667c0 23.564-19.102 42.667-42.667 42.667h-597.333c-23.564 0-42.667-19.103-42.667-42.667v-42.667zM853.333 320c0 23.565-19.102 42.667-42.667 42.667s-42.667-19.102-42.667-42.667v-85.333h-85.333c-23.565 0-42.667-19.102-42.667-42.667s19.102-42.667 42.667-42.667h85.333v-85.333c0-23.565 19.102-42.667 42.667-42.667s42.667 19.102 42.667 42.667v85.333h85.333c23.565 0 42.667 19.102 42.667 42.667s-19.102 42.667-42.667 42.667h-85.333v85.333z" />
<glyph unicode="&#xe905;" glyph-name="add_contact" d="M341.333 874.667c-79.524 0-146.344-54.39-165.29-128h-48.044c-23.564 0-42.667-19.103-42.667-42.667s19.103-42.667 42.667-42.667h42.667v-426.667h-42.667c-23.564 0-42.667-19.102-42.667-42.667s19.103-42.667 42.667-42.667h48.044c18.946-73.609 85.766-128 165.29-128h170.667c23.565 0 42.667 19.102 42.667 42.667s-19.102 42.667-42.667 42.667h-170.667c-47.128 0-85.333 38.204-85.333 85.333v512c0 47.128 38.205 85.333 85.333 85.333h426.667c47.13 0 85.333-38.205 85.333-85.333v-256c0-23.565 19.102-42.667 42.667-42.667s42.667 19.102 42.667 42.667v256c0 94.257-76.412 170.667-170.667 170.667h-426.667zM512 610.666c0 35.509 23.377 50.667 42.667 50.667s42.667-15.158 42.667-50.667c0-23.339-5.952-44.972-15.083-59.338-8.546-13.45-17.681-17.995-27.584-17.995s-19.038 4.545-27.584 17.995c-9.131 14.366-15.083 35.999-15.083 59.338zM554.667 746.667c-66.044 0-128-52.991-128-136 0-35.92 8.811-74.287 28.395-105.105 20.164-31.735 53.7-57.562 99.605-57.562s79.441 25.826 99.605 57.562c19.584 30.818 28.395 69.185 28.395 105.105 0 83.010-61.956 136-128 136zM446.669 296.405c-26.808-14.003-46.527-33.886-56.103-61.739h121.434c23.565 0 42.667-19.102 42.667-42.667s-19.102-42.667-42.667-42.667h-128c-43.198 0-93.034 37.956-79.402 94.929 14.823 61.952 55.304 103.091 102.559 127.778 46.317 24.196 100.005 33.293 147.51 33.293 31.351 0 64.939-3.951 97.22-13.316 22.63-6.566 35.657-30.234 29.090-52.864-6.562-22.63-30.234-35.657-52.864-29.090-23.501 6.818-48.964 9.937-73.446 9.937-37.871 0-77.073-7.437-107.998-23.595zM384.003 234.667h-0.003c-0.098 0-0.093 0.021 0.003 0zM853.333 320c0 23.565-19.102 42.667-42.667 42.667s-42.667-19.102-42.667-42.667v-85.333h-85.333c-23.565 0-42.667-19.102-42.667-42.667s19.102-42.667 42.667-42.667h85.333v-85.333c0-23.565 19.102-42.667 42.667-42.667s42.667 19.102 42.667 42.667v85.333h85.333c23.565 0 42.667 19.102 42.667 42.667s-19.102 42.667-42.667 42.667h-85.333v85.333z" />
<glyph unicode="&#xe906;" glyph-name="add_image" d="M853.333 874.667c0 23.564-19.102 42.667-42.667 42.667s-42.667-19.103-42.667-42.667v-85.333h-85.333c-23.565 0-42.667-19.103-42.667-42.667s19.102-42.667 42.667-42.667h85.333v-85.333c0-23.564 19.102-42.667 42.667-42.667s42.667 19.103 42.667 42.667v85.333h85.333c23.565 0 42.667 19.103 42.667 42.667s-19.102 42.667-42.667 42.667h-85.333v85.333zM170.667 576c0 117.821 95.513 213.333 213.333 213.333h128c23.565 0 42.667 19.103 42.667 42.667s-19.102 42.667-42.667 42.667h-128c-164.949 0-298.667-133.718-298.667-298.667v-256c0-164.949 133.718-298.667 298.667-298.667h256c164.949 0 298.667 133.717 298.667 298.667v128c0 23.565-19.102 42.667-42.667 42.667s-42.667-19.102-42.667-42.667v-128c0-1.212-0.009-2.423-0.030-3.631l-101.461 101.461c-49.988 49.988-131.029 49.988-181.018 0l-286.497-286.498c-67.603 35.789-113.661 106.85-113.661 188.668v256zM691.503 357.491l137.165-137.165c-35.789-67.601-106.85-113.66-188.668-113.66h-256c-1.213 0-2.423 0.009-3.63 0.030l250.794 250.795c16.661 16.661 43.678 16.661 60.339 0zM341.333 554.667c0 35.346 28.654 64 64 64 35.345 0 64-28.654 64-64 0-35.345-28.655-64-64-64-35.346 0-64 28.655-64 64zM405.333 704c-82.475 0-149.333-66.859-149.333-149.333s66.859-149.333 149.333-149.333c82.475 0 149.333 66.859 149.333 149.333s-66.859 149.333-149.333 149.333z" />
<glyph unicode="&#xe907;" glyph-name="add_person" d="M341.333 691.451c0 61.522 41.001 97.882 85.333 97.882 44.331 0 85.333-36.361 85.333-97.882 0-39.285-4.587-82.013-18.982-113.446-6.946-15.165-15.39-25.949-25.075-32.956-9.246-6.688-22.029-11.716-41.276-11.716s-32.032 5.028-41.276 11.716c-9.685 7.007-18.129 17.791-25.076 32.956-14.397 31.433-18.982 74.161-18.982 113.446zM426.667 874.667c-97.053 0-170.667-80.359-170.667-183.216 0-42.904 4.558-100.568 26.733-148.98 11.34-24.757 28.038-48.757 52.639-66.558 25.041-18.116 55.685-27.913 91.295-27.913s66.253 9.796 91.294 27.913c24.602 17.801 41.301 41.801 52.642 66.558 22.174 48.412 26.731 106.077 26.731 148.98 0 102.857-73.613 183.216-170.667 183.216zM213.333 149.333c0 62.135 18.473 101.837 48.977 127.185 31.996 26.581 84.459 43.482 164.356 43.482s132.361-16.9 164.356-43.482c30.507-25.348 48.977-65.050 48.977-127.185 0-23.565-19.102-42.667-42.667-42.667h-341.333c-23.564 0-42.667 19.102-42.667 42.667zM426.667 405.333c-89.765 0-165.302-18.658-218.89-63.185-55.080-45.764-79.776-112.725-79.776-192.815 0-70.694 57.308-128 128-128h341.333c70.694 0 128 57.306 128 128 0 80.090-24.695 147.051-79.778 192.815-53.585 44.527-129.122 63.185-218.889 63.185zM853.333 576c0 23.564-19.102 42.667-42.667 42.667s-42.667-19.103-42.667-42.667v-85.333h-85.333c-23.565 0-42.667-19.102-42.667-42.667s19.102-42.667 42.667-42.667h85.333v-85.333c0-23.565 19.102-42.667 42.667-42.667s42.667 19.102 42.667 42.667v85.333h85.333c23.565 0 42.667 19.102 42.667 42.667s-19.102 42.667-42.667 42.667h-85.333v85.333z" />
<glyph unicode="&#xe908;" glyph-name="add_room" d="M547.034 814.41c26.193 4.762 50.3-15.359 50.3-41.978v-452.432c0-23.565 19.102-42.667 42.667-42.667s42.667 19.102 42.667 42.667v452.432c0 79.86-72.324 140.221-150.899 125.935l-298.665-54.303c-60.863-11.066-105.103-64.075-105.103-125.935v-540.23c0-61.862 44.24-114.871 105.103-125.939 0.393-0.068 0.787-0.137 1.182-0.196l335.264-51.277c23.296-3.558 45.065 12.433 48.627 35.729 3.563 23.292-12.433 45.065-35.725 48.627l-334.573 51.166c-20.035 3.883-34.545 21.436-34.545 41.89v540.23c0 20.62 14.746 38.29 35.034 41.978l298.666 54.303zM768 832.013c-23.565 0-42.667-19.103-42.667-42.667s19.102-42.667 42.667-42.667c23.565 0 42.667-19.103 42.667-42.667v-277.333c0-23.565 19.102-42.667 42.667-42.667s42.667 19.102 42.667 42.667v277.333c0 70.692-57.306 128-128 128zM469.333 512.013c-23.565 0-42.667-19.102-42.667-42.667v-42.667c0-23.565 19.102-42.667 42.667-42.667h42.667c23.565 0 42.667 19.102 42.667 42.667v42.667c0 23.565-19.102 42.667-42.667 42.667h-42.667zM853.333 277.333c0 23.561-19.102 42.667-42.667 42.667s-42.667-19.106-42.667-42.667v-85.333h-85.333c-23.565 0-42.667-19.106-42.667-42.667 0-23.565 19.102-42.667 42.667-42.667h85.333v-85.333c0-23.565 19.102-42.667 42.667-42.667s42.667 19.102 42.667 42.667v85.333h85.333c23.565 0 42.667 19.102 42.667 42.667 0 23.561-19.102 42.667-42.667 42.667h-85.333v85.333z" />
<glyph unicode="&#xe909;" glyph-name="add_star" d="M547.878 811.368c-7.74 12.834-21.649 20.666-36.634 20.632-14.989-0.034-28.86-7.929-36.54-20.798l-78.822-132.050c-24.715-41.405-65.791-70.422-113.075-79.878l-120.509-24.102c-14.665-2.933-26.724-13.33-31.784-27.404s-2.38-29.768 7.061-41.369l87.13-107.042c30.772-37.803 43.91-86.959 36.102-135.078l-24.468-150.775c-2.394-14.754 3.105-29.683 14.496-39.356s27.014-12.685 41.183-7.932l190.877 64c22.34 7.488 34.381 31.676 26.889 54.016-7.488 22.34-31.676 34.381-54.016 26.889l-123.878-41.536 13.149 81.028c11.712 72.171-7.995 145.907-54.153 202.615l-42.449 52.147 51.105 10.223c70.925 14.187 132.541 57.711 169.61 119.818l42.377 70.989 43.345-71.873c37.146-61.591 98.487-104.713 169.011-118.819l51.802-10.359c-12.71-18.155-9.417-43.315 8.043-57.527 18.278-14.874 45.15-12.117 60.028 6.157l42.667 52.416c9.438 11.601 12.117 27.295 7.061 41.369-5.060 14.074-17.122 24.471-31.787 27.404l-121.075 24.215c-47.019 9.404-87.915 38.153-112.678 79.213l-80.068 132.768zM810.667 320c0 23.565-19.102 42.667-42.667 42.667s-42.667-19.102-42.667-42.667v-85.333h-85.333c-23.565 0-42.667-19.102-42.667-42.667s19.102-42.667 42.667-42.667h85.333v-85.333c0-23.565 19.102-42.667 42.667-42.667s42.667 19.102 42.667 42.667v85.333h85.333c23.565 0 42.667 19.102 42.667 42.667s-19.102 42.667-42.667 42.667h-85.333v85.333z" />
<glyph unicode="&#xe90a;" glyph-name="android" d="M192.236 826.417c20.482 11.652 46.531 4.494 58.183-15.988l63.861-112.254c59.13 30.971 126.424 48.49 197.72 48.49s138.59-17.519 197.722-48.49l63.859 112.254c11.652 20.482 37.7 27.639 58.185 15.988 20.48-11.652 27.639-37.702 15.987-58.183l-66.637-117.131c96.073-78.182 157.551-197.457 157.551-331.107v-127.996c-0.004-47.13-38.208-85.333-85.333-85.333h-682.665c-47.128 0-85.333 38.204-85.333 85.333l-0.002 127.996c0 133.649 61.478 252.925 157.551 331.107l-66.636 117.131c-11.652 20.482-4.494 46.531 15.988 58.183zM512 661.331c-70.229 0-135.386-21.164-189.6-57.453-91.584-61.304-151.733-165.576-151.734-283.878v-0.004l0.002-127.996h682.665v127.996c0 118.306-60.151 222.578-151.735 283.882-54.212 36.29-119.369 57.453-189.598 57.453zM256 383.991c0 23.565 19.103 42.667 42.667 42.667h42.667c23.564 0 42.667-19.102 42.667-42.667v-42.667c0-23.565-19.103-42.667-42.667-42.667h-42.667c-23.564 0-42.667 19.102-42.667 42.667v42.667zM682.667 426.658c-23.565 0-42.667-19.102-42.667-42.667v-42.667c0-23.565 19.102-42.667 42.667-42.667h42.667c23.565 0 42.667 19.102 42.667 42.667v42.667c0 23.565-19.102 42.667-42.667 42.667h-42.667z" />
<glyph unicode="&#xe90b;" glyph-name="apple" d="M516.902 877.244c23.535 28.242 58.778 43.105 101.764 43.105 12.117 0 23.735-4.813 32.303-13.381s13.38-20.188 13.38-32.304c0-64.878-51.669-131.018-131.017-131.018-25.233 0-45.683 20.454-45.683 45.684 0 28.121 6.942 61.137 29.252 87.913zM124.982 436.096c0 167.63 115.295 292.257 261.356 292.253 42.284-0.001 74.441-11.985 98.33-22.025 3.977-1.672 7.441-3.161 10.564-4.505 6.95-2.987 12.237-5.26 17.839-7.25 6.622-2.353 10.394-3.012 12.702-3.116 0.418 0.113 2.97 0.643 8.879 2.854 5.026 1.881 9.199 3.622 14.225 5.721 4.395 1.835 9.442 3.942 16.282 6.652 25.233 9.997 59.703 21.667 101.449 21.668 82.577 0.002 157.133-40.69 205.12-107.621 14.656-20.445 10.027-48.893-10.359-63.636-36.937-26.716-60.467-69.353-60.467-117.131 0-27.622 6.447-49.242 18.287-68.493 12.271-19.947 31.701-39.548 60.877-60.599 17.395-12.548 23.714-35.516 15.194-55.198l-41.924 18.15c41.924-18.15 41.92-18.155 41.92-18.159l-0.013-0.026-0.026-0.068-0.102-0.226-0.363-0.836-1.361-3.098c-1.169-2.654-2.859-6.46-4.962-11.115-4.194-9.297-10.069-22.080-16.777-35.985-12.732-26.398-30.635-61.504-46.272-82.372-22.545-30.089-47.846-55.283-74.449-73.297-26.227-17.762-56.414-30.323-87.808-30.323-38.473 0-68.117 11.866-89.809 20.774-23.292 9.566-34.257 13.922-46.865 13.922-12.599 0-23.552-4.352-46.835-13.918-21.679-8.909-51.319-20.779-89.792-20.779-37.3 0-72.154 18.974-100.554 42.359-29.328 24.149-57.030 57.254-80.852 95.232-47.502 75.721-83.431 177.045-83.431 280.188zM796.962 260.049c-22.050 18.995-41.003 39.821-55.599 63.548-21.218 34.496-31.829 72.858-31.829 116.365 0 60.617 23.091 115.782 60.809 157.545-29.171 25.54-65.408 39.474-103.731 39.473-24.644-0.001-46.447-6.786-67.793-15.244-3.371-1.335-7.625-3.092-12.1-4.94-6.985-2.885-14.511-5.993-20.045-8.063-9.839-3.682-24.508-8.664-40.222-8.664-16.87 0-31.799 4.081-43.968 8.403-8.589 3.051-17.958 7.081-25.971 10.525-2.581 1.11-5.022 2.159-7.249 3.095-20.019 8.415-38.816 14.886-62.928 14.887-87.487 0.002-169.984-75.205-169.984-200.884 0-83.166 29.475-167.889 69.463-231.633 19.923-31.761 41.487-56.747 61.533-73.254 20.974-17.271 35.6-21.521 42.473-21.521 19.205 0 34.528 5.478 55.066 13.918 1.404 0.58 2.863 1.186 4.378 1.813 18.825 7.829 45.615 18.965 77.184 18.965s58.364-11.136 77.201-18.961c1.51-0.627 2.97-1.233 4.378-1.813 20.548-8.439 35.887-13.922 55.095-13.922 7.215 0 19.691 3.17 36.57 14.601 16.508 11.179 34.748 28.651 52.57 52.437 9.493 12.668 23.846 39.808 37.090 67.273 2.697 5.589 5.257 10.999 7.612 16.051z" />
<glyph unicode="&#xe90c;" glyph-name="appointment" d="M213.333 704c0 23.564 19.103 42.667 42.667 42.667h512c23.565 0 42.667-19.103 42.667-42.667v-580.804l-71.842 23.949c-9.574 3.191-19.968 2.884-29.338-0.862l-90.82-36.331-90.82 36.331c-10.172 4.066-21.521 4.066-31.693 0l-90.82-36.331-90.821 36.331c-9.37 3.746-19.764 4.053-29.338 0.862l-71.841-23.949v580.804zM256 832c-70.692 0-128-57.308-128-128v-640c0-13.713 6.593-26.594 17.719-34.611 11.126-8.021 25.429-10.202 38.44-5.867l113.173 37.726 92.155-36.864c10.172-4.066 21.52-4.066 31.692 0l90.821 36.331 90.82-36.331c10.172-4.066 21.521-4.066 31.693 0l92.156 36.864 113.173-37.726c13.009-4.335 27.311-2.155 38.438 5.867 11.127 8.017 17.719 20.898 17.719 34.611v640c0 70.692-57.306 128-128 128h-512zM469.333 576c0 23.564-19.102 42.667-42.667 42.667s-42.667-19.103-42.667-42.667v-277.333c0-23.565 19.103-42.667 42.667-42.667s42.667 19.102 42.667 42.667v108.8c6.895-1.399 14.029-2.133 21.333-2.133h64c58.91 0 106.667 47.757 106.667 106.667v64c0 23.564-19.102 42.667-42.667 42.667s-42.667-19.103-42.667-42.667v-64c0-11.78-9.553-21.333-21.333-21.333h-64c-11.78 0-21.333 9.553-21.333 21.333v64z" />
<glyph unicode="&#xe90d;" glyph-name="arrow_right" d="M750.327 490.667l-225.83 225.83c-16.661 16.663-16.661 43.677 0 60.34s43.678 16.662 60.339 0l238.327-238.327c49.988-49.989 49.988-131.030 0-181.018l-238.327-238.327c-16.661-16.661-43.678-16.661-60.339 0s-16.661 43.678 0 60.339l225.83 225.83h-579.661c-23.564 0-42.667 19.102-42.667 42.667s19.103 42.667 42.667 42.667h579.661z" />
<glyph unicode="&#xe90e;" glyph-name="attachment" d="M693.009 749.692c-49.984 49.987-131.029 49.987-181.018 0l-284.026-284.023c-83.312-83.315-83.312-218.389 0-301.7s218.387-83.311 301.698 0l344.367 344.367c16.661 16.661 43.678 16.661 60.339 0 16.661-16.666 16.661-43.678 0-60.343l-344.367-344.363c-116.634-116.638-305.741-116.638-422.377 0-116.637 116.634-116.637 305.741 0 422.379l284.026 284.024c83.311 83.312 218.385 83.312 301.7 0 83.311-83.312 83.311-218.387 0-301.697l-284.028-284.028c-49.987-49.988-131.032-49.988-181.019 0s-49.987 131.034 0 181.018l284.025 284.027c16.661 16.663 43.678 16.663 60.339 0 16.666-16.662 16.666-43.677 0-60.34l-284.025-284.027c-16.662-16.661-16.662-43.678 0-60.339s43.677-16.661 60.34 0l284.024 284.026c49.988 49.987 49.988 131.032 0 181.019z" />
<glyph unicode="&#xe90f;" glyph-name="auto_pay" d="M858.953 327.761c-58.317 58.317-152.87 58.317-211.187 0-16.661-16.661-43.678-16.661-60.339 0-16.666 16.661-16.666 43.678 0 60.339 91.644 91.644 240.226 91.644 331.866 0 91.644-91.644 91.644-240.226 0-331.87-91.639-91.639-240.222-91.639-331.866 0l-32.759 32.759v-67.661c0-23.565-19.102-42.667-42.667-42.667s-42.667 19.102-42.667 42.667v170.667c0 23.565 19.102 42.667 42.667 42.667h170.667c23.565 0 42.667-19.102 42.667-42.667s-19.102-42.667-42.667-42.667h-67.661l32.759-32.755c58.317-58.321 152.87-58.321 211.187 0 58.321 58.317 58.321 152.87 0 211.187zM213.333 832h597.333c70.694 0 128-57.308 128-128v-128c0-23.564-19.102-42.667-42.667-42.667-3.682 0-7.258 0.467-10.667 1.344-3.409-0.877-6.985-1.344-10.667-1.344h-704v-213.333c0-23.565 19.103-42.667 42.667-42.667h149.333c23.564 0 42.667-19.102 42.667-42.667s-19.103-42.667-42.667-42.667h-149.333c-70.692 0-128 57.306-128 128v384c0 70.692 57.308 128 128 128zM853.333 661.333v42.667c0 23.564-19.102 42.667-42.667 42.667h-597.333c-23.564 0-42.667-19.103-42.667-42.667v-42.667h682.667z" />
<glyph unicode="&#xe910;" glyph-name="back" d="M542.519 709.754c-7.595 8.019-20.254 8.362-28.275 0.766l-57.050-54.044c-3.9-3.694-6.148-8.8-6.242-14.17s1.975-10.552 5.743-14.38l57.054-57.956c7.748-7.872 20.412-7.971 28.279-0.222 7.872 7.749 7.974 20.412 0.226 28.283l-26.573 26.994c53.419-0.96 106.313-22.608 145.557-64.42 76.77-81.786 72.277-209.868-10.065-286.151-82.415-76.348-211.575-71.859-288.415 10.001-76.77 81.783-72.277 209.869 10.065 286.149 8.103 7.507 8.587 20.161 1.080 28.264s-20.161 8.587-28.264 1.080c-98.611-91.352-104.018-244.888-12.046-342.868 91.901-97.907 246.228-103.249 344.762-11.968 98.611 91.354 104.021 244.89 12.049 342.869-45.086 48.029-105.195 73.764-166.306 76.777l17.655 16.723c8.017 7.596 8.358 20.255 0.764 28.274z" />
<glyph unicode="&#xe911;" glyph-name="bank" d="M213.333 597.324c23.564 0 42.667-19.103 42.667-42.667v-405.333h106.667v405.333c0 23.564 19.103 42.667 42.667 42.667s42.667-19.103 42.667-42.667v-490.666c0-23.565-19.102-42.667-42.667-42.667h-277.333c-23.564 0-42.667 19.102-42.667 42.667s19.103 42.667 42.667 42.667h42.667v448c0 23.564 19.103 42.667 42.667 42.667zM618.667 597.324c23.565 0 42.667-19.103 42.667-42.667v-405.333h106.667v405.333c0 23.564 19.102 42.667 42.667 42.667s42.667-19.103 42.667-42.667v-448h42.667c23.565 0 42.667-19.102 42.667-42.667s-19.102-42.667-42.667-42.667h-277.333c-23.565 0-42.667 19.102-42.667 42.667v490.666c0 23.564 19.102 42.667 42.667 42.667zM525.491 782.519c-8.755 2.92-18.227 2.92-26.982 0l-327.842-109.28v-54.581h682.667v54.581l-327.842 109.28zM471.522 863.473c26.274 8.758 54.682 8.758 80.956 0l327.842-109.28c34.842-11.615 58.347-44.224 58.347-80.954v-54.581c0-47.128-38.204-85.333-85.333-85.333h-682.667c-47.128 0-85.333 38.205-85.333 85.333v54.581c0 36.73 23.503 69.339 58.348 80.954l327.84 109.28z" />
<glyph unicode="&#xe912;" glyph-name="barcode_scan" d="M170.667 832c-23.564 0-42.667-19.103-42.667-42.667v-42.667c0-23.564-19.103-42.667-42.667-42.667s-42.667 19.103-42.667 42.667v42.667c0 70.692 57.308 128 128 128h42.667c23.564 0 42.667-19.103 42.667-42.667s-19.103-42.667-42.667-42.667h-42.667zM213.333 298.667v-128c0-11.78 9.551-21.333 21.333-21.333s21.333 9.553 21.333 21.333v128c0 11.78-9.551 21.333-21.333 21.333s-21.333-9.553-21.333-21.333zM213.333 725.333v-277.333h-85.333c-23.564 0-42.667-19.102-42.667-42.667s19.103-42.667 42.667-42.667h768c23.565 0 42.667 19.102 42.667 42.667s-19.102 42.667-42.667 42.667h-85.333v256c0 23.564-19.102 42.667-42.667 42.667s-42.667-19.103-42.667-42.667v-256h-64v277.333c0 11.782-9.553 21.333-21.333 21.333s-21.333-9.551-21.333-21.333v-277.333h-42.667v277.333c0 11.782-9.553 21.333-21.333 21.333s-21.333-9.551-21.333-21.333v-277.333h-106.667v256c0 23.564-19.103 42.667-42.667 42.667s-42.667-19.103-42.667-42.667v-256h-85.333v277.333c0 11.782-9.551 21.333-21.333 21.333s-21.333-9.551-21.333-21.333zM533.333 298.667v-128c0-11.78 9.553-21.333 21.333-21.333s21.333 9.553 21.333 21.333v128c0 11.78-9.553 21.333-21.333 21.333s-21.333-9.553-21.333-21.333zM618.667 170.667v128c0 11.78 9.553 21.333 21.333 21.333s21.333-9.553 21.333-21.333v-128c0-11.78-9.553-21.333-21.333-21.333s-21.333 9.553-21.333 21.333zM426.667 277.333c0 23.565-19.103 42.667-42.667 42.667s-42.667-19.102-42.667-42.667v-85.333c0-23.565 19.102-42.667 42.667-42.667s42.667 19.102 42.667 42.667v85.333zM128 106.667c0-23.565 19.103-42.667 42.667-42.667h42.667c23.564 0 42.667-19.102 42.667-42.667s-19.103-42.667-42.667-42.667h-42.667c-70.692 0-128 57.306-128 128v42.667c0 23.565 19.103 42.667 42.667 42.667s42.667-19.102 42.667-42.667v-42.667zM853.333 832c23.565 0 42.667-19.103 42.667-42.667v-42.667c0-23.564 19.102-42.667 42.667-42.667s42.667 19.103 42.667 42.667v42.667c0 70.692-57.306 128-128 128h-42.667c-23.565 0-42.667-19.103-42.667-42.667s19.102-42.667 42.667-42.667h42.667zM896 106.667c0-23.565-19.102-42.667-42.667-42.667h-42.667c-23.565 0-42.667-19.102-42.667-42.667s19.102-42.667 42.667-42.667h42.667c70.694 0 128 57.306 128 128v42.667c0 23.565-19.102 42.667-42.667 42.667s-42.667-19.102-42.667-42.667v-42.667zM725.333 192v85.333c0 23.565 19.102 42.667 42.667 42.667s42.667-19.102 42.667-42.667v-85.333c0-23.565-19.102-42.667-42.667-42.667s-42.667 19.102-42.667 42.667z" />
<glyph unicode="&#xe913;" glyph-name="bill" d="M384 874.667c-47.128 0-85.333-38.205-85.333-85.333 0-23.564 19.103-42.667 42.667-42.667s42.667 19.103 42.667 42.667h426.667c23.565 0 42.667-19.103 42.667-42.667v-512h-21.333c-23.565 0-42.667-19.102-42.667-42.667s19.102-42.667 42.667-42.667h21.333c47.13 0 85.333 38.204 85.333 85.333v512c0 70.692-57.306 128-128 128h-426.667zM213.333 704c-70.692 0-128-57.308-128-128v-512c0-14.157 7.023-27.392 18.746-35.332 11.724-7.936 26.621-9.54 39.766-4.284l88.877 35.55 68.196-34.095c12.012-6.007 26.15-6.007 38.162 0l66.252 33.126 66.253-33.126c12.011-6.007 26.15-6.007 38.161 0l68.198 34.095 88.875-35.55c13.146-5.257 28.045-3.652 39.765 4.284 11.725 7.94 18.748 21.175 18.748 35.332v512c0 70.692-57.306 128-128 128h-384zM170.667 576c0 23.564 19.103 42.667 42.667 42.667h384c23.565 0 42.667-19.103 42.667-42.667v-448.981l-48.154 19.264c-11.315 4.527-24.026 3.998-34.927-1.455l-66.253-33.126-66.252 33.126c-12.012 6.007-26.15 6.007-38.162 0l-66.252-33.126-66.252 33.126c-10.9 5.453-23.611 5.982-34.927 1.455l-48.154-19.264v448.981zM384 490.667c-23.564 0-42.667-19.102-42.667-42.667s19.103-42.667 42.667-42.667h128c23.565 0 42.667 19.102 42.667 42.667s-19.102 42.667-42.667 42.667h-128zM298.667 362.667c-23.564 0-42.667-19.102-42.667-42.667s19.103-42.667 42.667-42.667h213.333c23.565 0 42.667 19.102 42.667 42.667s-19.102 42.667-42.667 42.667h-213.333z" />
<glyph unicode="&#xe914;" glyph-name="bill_check" d="M213.333 704c0 23.564 19.103 42.667 42.667 42.667h448c23.565 0 42.667 19.103 42.667 42.667s-19.102 42.667-42.667 42.667h-448c-70.692 0-128-57.308-128-128v-640c0-13.713 6.593-26.594 17.719-34.611 11.126-8.021 25.429-10.202 38.44-5.867l113.173 37.726 92.155-36.864c10.172-4.066 21.52-4.066 31.692 0l90.821 36.331 90.82-36.331c10.172-4.066 21.521-4.066 31.693 0l92.156 36.864 113.173-37.726c13.009-4.335 27.311-2.155 38.438 5.867 11.127 8.017 17.719 20.898 17.719 34.611v405.333c0 23.565-19.102 42.667-42.667 42.667s-42.667-19.102-42.667-42.667v-346.138l-71.842 23.949c-9.574 3.191-19.968 2.884-29.338-0.862l-90.82-36.331-90.82 36.331c-10.172 4.066-21.521 4.066-31.693 0l-90.82-36.331-90.821 36.331c-9.37 3.746-19.764 4.053-29.338 0.862l-71.841-23.949v580.804zM928.29 740.112c15.403 17.834 13.431 44.777-4.403 60.179s-44.774 13.431-60.177-4.403l-372.919-431.8-95.729 111.68c-15.336 17.89-42.271 19.964-60.162 4.629-17.891-15.339-19.963-42.274-4.628-60.164l127.998-149.333c8.090-9.434 19.891-14.878 32.316-14.899 12.429-0.021 24.247 5.372 32.371 14.78l405.333 469.332z" />
<glyph unicode="&#xe915;" glyph-name="block" d="M130.106 661.316v-354.521c0-53.73 11.276-106.863 33.097-155.959l10.869-24.457c34.24-77.039 110.639-126.69 194.946-126.69h183.907c96.964 0 185.609 54.788 228.975 141.517l68.621 137.242 74.176 133.517c29.039 52.271 11.396 118.157-39.881 148.924-46.865 28.119-107.23 17.894-142.221-24.091l-15.066-18.077 0.183 228.065c0.038 47.235-38.302 85.515-85.538 85.402l-42.94-0.103c-0.845-0.002-1.685-0.016-2.526-0.043-9.545 36.793-43.025 63.934-82.807 63.839l-42.935-0.103c-31.723-0.076-59.369-17.456-74.013-43.19-3.665 0.48-7.403 0.728-11.199 0.728h-42.316c-47.128 0-85.333-38.205-85.333-85.333v-21.333h-42.667c-47.128 0-85.333-38.205-85.333-85.333zM343.44 661.371v106.612h42.316l0.351-299.008c0.028-23.565 19.153-42.645 42.715-42.62 23.565 0.030 42.645 19.153 42.62 42.718l-0.047 40.58c0.030 0.687 0.047 1.378 0.047 2.074l-0.269 298.717 42.935 0.103v-63.611c0-0.061 0-0.123 0-0.184v-235.063c0-0.107 0-0.218 0-0.324v-42.342c0-23.561 19.102-42.667 42.667-42.667s42.667 19.106 42.667 42.667v277.729l42.94 0.102-0.265-330.623-75.473-90.556c-15.087-18.103-12.642-45.009 5.461-60.096 18.099-15.083 45.005-12.638 60.092 5.461l175.953 211.123c8.060 9.673 21.969 12.028 32.764 5.551 11.814-7.087 15.881-22.268 9.19-34.308l-74.628-134.327c-0.299-0.542-0.589-1.088-0.866-1.638l-69.035-138.074c-28.911-57.818-88.004-94.345-152.649-94.345h-183.907c-50.584 0-96.424 29.79-116.968 76.015l-10.869 24.457c-16.972 38.187-25.742 79.509-25.742 121.301v354.521h42.667v-192.294c0-23.561 19.103-42.667 42.667-42.667s42.667 19.106 42.667 42.667v42.641c0 0.009 0 0.017 0 0.026v149.627c0 0.018 0 0.037 0 0.055z" />
<glyph unicode="&#xe916;" glyph-name="burger_menu" d="M170.667 661.333h682.667c23.565 0 42.667 19.103 42.667 42.667s-19.102 42.667-42.667 42.667h-682.667c-23.564 0-42.667-19.103-42.667-42.667s19.103-42.667 42.667-42.667zM170.667 234.667c-23.564 0-42.667-19.102-42.667-42.667s19.103-42.667 42.667-42.667h682.667c23.565 0 42.667 19.102 42.667 42.667s-19.102 42.667-42.667 42.667h-682.667zM170.667 490.667c-23.564 0-42.667-19.102-42.667-42.667s19.103-42.667 42.667-42.667h682.667c23.565 0 42.667 19.102 42.667 42.667s-19.102 42.667-42.667 42.667h-682.667z" />
<glyph unicode="&#xe917;" glyph-name="bus" d="M85.333 789.333c0 70.692 57.308 128 128 128h554.667c70.694 0 128-57.308 128-128v-11.416c25.506-14.755 42.667-42.332 42.667-73.917v-85.333c0-23.564-19.102-42.667-42.667-42.667v-554.667c0-23.565-19.102-42.667-42.667-42.667h-42.667c-23.565 0-42.667 19.102-42.667 42.667v42.667h-554.667v-42.667c0-23.565-19.103-42.667-42.667-42.667h-42.667c-23.564 0-42.667 19.102-42.667 42.667v554.667c-23.564 0-42.667 19.103-42.667 42.667v85.333c0 31.585 17.161 59.163 42.667 73.917v11.416zM170.667 746.667v-298.667h640v341.333c0 23.564-19.102 42.667-42.667 42.667h-554.667c-23.564 0-42.667-19.103-42.667-42.667v-42.667zM810.667 362.667h-640v-213.333h640v213.333zM213.333 277.333c0 23.565 19.103 42.667 42.667 42.667h42.667c23.564 0 42.667-19.102 42.667-42.667v-42.667c0-23.565-19.103-42.667-42.667-42.667h-42.667c-23.564 0-42.667 19.102-42.667 42.667v42.667zM640 277.333c0 23.565 19.102 42.667 42.667 42.667h42.667c23.565 0 42.667-19.102 42.667-42.667v-42.667c0-23.565-19.102-42.667-42.667-42.667h-42.667c-23.565 0-42.667 19.102-42.667 42.667v42.667z" />
<glyph unicode="&#xe918;" glyph-name="cafe" d="M495.113 840.665c18.697 14.173 22.447 40.808 8.354 59.599-14.14 18.851-40.883 22.672-59.733 8.533l25.122-33.498c-25.122 33.498-25.135 33.487-25.148 33.477l-0.030-0.022-0.068-0.049-0.154-0.117-0.401-0.308-1.165-0.909c-0.926-0.736-2.159-1.732-3.652-2.985-2.982-2.502-7.019-6.043-11.759-10.585-9.442-9.048-21.878-22.271-34.318-39.376-24.76-34.045-50.827-85.339-50.827-150.429 0-23.564 19.103-42.667 42.667-42.667s42.667 19.103 42.667 42.667c0 41.577 16.602 75.617 34.505 100.238 8.896 12.228 17.792 21.673 24.35 27.957 3.26 3.124 5.888 5.417 7.573 6.831 0.841 0.706 1.442 1.189 1.762 1.443l0.256 0.198zM595.546 730.072c20.736 10.681 29.077 36.086 18.615 57.007-10.539 21.076-36.164 29.62-57.242 19.081l19.081-38.162c-19.081 38.162-19.098 38.155-19.11 38.147l-0.034-0.016-0.064-0.033-0.145-0.073-0.337-0.173-0.866-0.455c-0.661-0.351-1.481-0.802-2.445-1.352-1.92-1.097-4.429-2.609-7.334-4.544-5.734-3.823-13.393-9.556-21.167-17.331-15.317-15.317-33.83-41.53-33.83-78.17 0-23.564 19.102-42.667 42.667-42.667s42.667 19.103 42.667 42.667c0 6.026 2.82 11.814 8.836 17.83 2.893 2.892 5.901 5.159 8.166 6.669 1.097 0.731 1.92 1.219 2.334 1.456l0.209 0.119zM128 576c0 23.564 19.103 42.667 42.667 42.667h629.333c76.582 0 138.667-62.083 138.667-138.667 0-76.582-62.084-138.667-138.667-138.667h-34.517c-7.488-63.211-31.522-123.61-70.016-174.933l-38.4-51.2c-2.219-2.957-4.553-5.803-6.993-8.533h117.926c23.565 0 42.667-19.102 42.667-42.667s-19.102-42.667-42.667-42.667h-597.333c-23.564 0-42.667 19.102-42.667 42.667s19.103 42.667 42.667 42.667h75.26c-2.441 2.731-4.775 5.577-6.993 8.533l-17.067 22.754c-60.93 81.242-93.867 180.053-93.867 281.6v156.446zM768 426.667h32c29.457 0 53.333 23.876 53.333 53.333s-23.876 53.333-53.333 53.333h-32v-106.667zM682.667 533.333h-469.333v-113.779c0-83.085 26.948-163.93 76.8-230.4l17.067-22.754c8.058-10.743 20.704-17.067 34.133-17.067h213.333c13.431 0 26.074 6.323 34.133 17.067l38.4 51.2c36.002 48.004 55.467 106.394 55.467 166.4v149.333z" />
<glyph unicode="&#xe919;" glyph-name="calendar" d="M341.333 874.667c0 23.564-19.102 42.667-42.667 42.667s-42.667-19.103-42.667-42.667v-43.289c-59.704-5.891-108.079-52.95-114.592-113.741l-45.714-426.667c-8.106-75.657 51.183-141.636 127.272-141.636h578.072c76.087 0 135.377 65.98 127.27 141.636l-45.713 426.667c-6.515 60.791-54.891 107.851-114.594 113.741v43.289c0 23.564-19.102 42.667-42.667 42.667s-42.667-19.103-42.667-42.667v-42.667h-341.333v42.667zM268.679 746.667h486.641c21.807 0 40.102-16.44 42.428-38.121l45.713-426.668c2.701-25.216-17.062-47.211-42.423-47.211h-578.072c-25.363 0-45.126 21.995-42.424 47.211l45.714 426.668c2.323 21.681 20.62 38.121 42.424 38.121zM256 106.667c-23.564 0-42.667-19.102-42.667-42.667s19.103-42.667 42.667-42.667h512c23.565 0 42.667 19.102 42.667 42.667s-19.102 42.667-42.667 42.667h-512zM682.667 448c-23.565 0-42.667-19.102-42.667-42.667v-42.667c0-23.565 19.102-42.667 42.667-42.667h42.667c23.565 0 42.667 19.102 42.667 42.667v42.667c0 23.565-19.102 42.667-42.667 42.667h-42.667z" />
<glyph unicode="&#xe91a;" glyph-name="calendar_error" d="M192.001 874.667c0 23.564-19.102 42.667-42.667 42.667s-42.667-19.103-42.667-42.667v-256c0-23.564 19.103-42.667 42.667-42.667s42.667 19.103 42.667 42.667v256zM128.001 490.667c-23.564 0-42.667-19.102-42.667-42.667v-42.667c0-23.565 19.103-42.667 42.667-42.667h42.667c23.564 0 42.667 19.102 42.667 42.667v42.667c0 23.565-19.102 42.667-42.667 42.667h-42.667zM298.659 917.333c23.564 0 42.667-19.103 42.667-42.667v-42.667h341.332v42.667c0 23.564 19.102 42.667 42.667 42.667s42.667-19.103 42.667-42.667v-43.289c59.708-5.891 108.079-52.95 114.594-113.741l45.713-426.667c8.107-75.657-51.183-141.636-127.27-141.636h-578.071c-50.604 0-93.699 29.218-114.511 70.758-10.554 21.069-2.031 46.707 19.037 57.259 21.068 10.556 46.703 2.031 57.258-19.038 7.046-14.063 21.446-23.646 38.216-23.646h578.071c25.361 0 45.124 21.995 42.423 47.211l-45.713 426.668c-2.325 21.681-20.621 38.121-42.423 38.121h-456.656c-11.316 0-22.168 4.495-30.17 12.497s-12.497 18.854-12.497 30.17v85.333c0 23.564 19.102 42.667 42.667 42.667zM213.326 64c0 23.565 19.102 42.667 42.667 42.667h511.999c23.565 0 42.667-19.102 42.667-42.667s-19.102-42.667-42.667-42.667h-511.999c-23.564 0-42.667 19.102-42.667 42.667zM640 405.333c0 23.565 19.102 42.667 42.667 42.667h42.667c23.565 0 42.667-19.102 42.667-42.667v-42.667c0-23.565-19.102-42.667-42.667-42.667h-42.667c-23.565 0-42.667 19.102-42.667 42.667v42.667z" />
<glyph unicode="&#xe91b;" glyph-name="car" d="M309.997 874.667c-64.553 0-119.005-48.069-127.011-112.124l-23.318-186.543h-74.335c-23.564 0-42.667-19.103-42.667-42.667s19.103-42.667 42.667-42.667v-469.333c0-23.565 19.103-42.667 42.667-42.667h42.667c23.564 0 42.667 19.102 42.667 42.667v42.667h597.333v-42.667c0-23.565 19.102-42.667 42.667-42.667h42.667c23.565 0 42.667 19.102 42.667 42.667v469.333c23.565 0 42.667 19.102 42.667 42.667s-19.102 42.667-42.667 42.667h-74.334l-23.317 186.543c-8.009 64.055-62.46 112.124-127.014 112.124h-404.004zM170.667 149.333v304.384c6.418-3.708 13.763-5.717 21.333-5.717h640c7.569 0 14.916 2.010 21.333 5.717v-304.384h-682.667zM267.66 751.959c2.669 21.352 20.819 37.375 42.337 37.375h404.004c21.521 0 39.671-16.023 42.338-37.375l27.328-218.625h-543.335l27.328 218.625zM256 362.667c-23.564 0-42.667-19.102-42.667-42.667v-42.667c0-23.565 19.103-42.667 42.667-42.667h42.667c23.564 0 42.667 19.102 42.667 42.667v42.667c0 23.565-19.103 42.667-42.667 42.667h-42.667zM725.333 362.667c-23.565 0-42.667-19.102-42.667-42.667v-42.667c0-23.565 19.102-42.667 42.667-42.667h42.667c23.565 0 42.667 19.102 42.667 42.667v42.667c0 23.565-19.102 42.667-42.667 42.667h-42.667z" />
<glyph unicode="&#xe91c;" glyph-name="card_charge" d="M928.111 803.903c15.518 17.734 13.722 44.689-4.015 60.206-17.732 15.517-44.689 13.72-60.207-4.014l-149.333-170.667c-11.021-12.599-13.662-30.481-6.741-45.727 6.916-15.245 22.11-25.036 38.852-25.036h97.971l-87.415-99.904c-15.514-17.732-13.717-44.689 4.015-60.207s44.689-13.722 60.207 4.015l149.333 170.666c11.025 12.599 13.662 30.481 6.741 45.727-6.916 15.245-22.11 25.036-38.852 25.036h-97.971l87.415 99.904zM170.667 618.667c0 23.564 19.103 42.667 42.667 42.667h384c23.565 0 42.667 19.103 42.667 42.667s-19.102 42.667-42.667 42.667h-384c-70.692 0-128-57.308-128-128v-384c0-70.694 57.308-128 128-128h597.333c70.694 0 128 57.306 128 128v149.342c0 23.565-19.102 42.667-42.667 42.667s-42.667-19.102-42.667-42.667v-149.342c0-23.565-19.102-42.667-42.667-42.667h-597.333c-23.564 0-42.667 19.102-42.667 42.667v213.333l469.333 0.009c23.565 0.004 42.667 19.106 42.667 42.667v42.658c0 23.564-19.102 42.667-42.667 42.667h-469.333v42.667z" />
<glyph unicode="&#xe91d;" glyph-name="card_to_card" d="M810.667 21.333c70.694 0 128 57.306 128 128v256c0 47.433-25.822 88.781-63.97 110.848-20.395 11.802-46.498 4.83-58.295-15.565-11.797-20.399-4.83-46.498 15.569-58.3 12.864-7.441 21.363-21.244 21.363-36.983v-256c0-23.565-19.102-42.667-42.667-42.667h-469.333c-23.564 0-42.667 19.102-42.667 42.667v42.667c0 23.565-19.102 42.667-42.667 42.667s-42.667-19.102-42.667-42.667v-42.667c0-70.694 57.308-128 128-128h469.333zM640 832c70.694 0 128-57.308 128-128v-298.667c0-70.694-57.306-128-128-128h-426.667c-70.692 0-128 57.306-128 128v298.667c0 70.692 57.308 128 128 128h426.667zM682.667 704c0 23.564-19.102 42.667-42.667 42.667h-426.667c-23.564 0-42.667-19.103-42.667-42.667v-16.41h512v16.41zM682.667 405.333v160.82h-512v-160.82c0-23.565 19.103-42.667 42.667-42.667h426.667c23.565 0 42.667 19.102 42.667 42.667z" />
<glyph unicode="&#xe91e;" glyph-name="cards" d="M85.333 704c0 70.692 57.308 128 128 128h597.333c70.694 0 128-57.308 128-128v-384c0-70.694-57.306-128-128-128h-597.333c-70.692 0-128 57.306-128 128v384zM170.667 533.333v-213.333c0-23.565 19.103-42.667 42.667-42.667h597.333c23.565 0 42.667 19.102 42.667 42.667v213.333h-682.667zM853.333 661.333v42.667c0 23.564-19.102 42.667-42.667 42.667h-597.333c-23.564 0-42.667-19.103-42.667-42.667v-42.667h682.667zM170.667 106.667c0 23.565 19.103 42.667 42.667 42.667h597.333c23.565 0 42.667-19.102 42.667-42.667s-19.102-42.667-42.667-42.667h-597.333c-23.564 0-42.667 19.102-42.667 42.667z" />
<glyph unicode="&#xe91f;" glyph-name="change" d="M886.626 267.959c12.497-12.497 12.497-32.755 0-45.252l-128-128c-12.497-12.497-32.755-12.497-45.252 0l-128 128c-12.497 12.497-12.497 32.755 0 45.252s32.755 12.497 45.252 0l73.374-73.37v434.743c0 36.777-14.609 72.047-40.614 98.052s-61.274 40.614-98.052 40.614h-85.333c-17.673 0-32 14.327-32 32s14.327 32 32 32h85.333c53.751 0 105.301-21.352 143.309-59.36s59.358-89.556 59.358-143.307v-434.743l73.374 73.37c12.497 12.497 32.755 12.497 45.252 0zM339.281 189.948c26.005-26.005 61.276-40.614 98.052-40.614h85.333c17.673 0 32-14.327 32-32s-14.327-32-32-32h-85.333c-53.751 0-105.3 21.35-143.307 59.358s-59.36 89.557-59.36 143.309v434.745l-73.373-73.373c-12.497-12.497-32.758-12.497-45.255 0s-12.497 32.758 0 45.255l128 128c12.497 12.497 32.758 12.497 45.255 0l128-128c12.496-12.497 12.496-32.758 0-45.255s-32.758-12.497-45.255 0l-73.373 73.373v-434.745c0-36.779 14.609-72.047 40.614-98.052z" />
<glyph unicode="&#xe920;" glyph-name="change_user_interface" d="M512 277.333c23.565 0 42.667-19.102 42.667-42.667v-0.427c0-23.565-19.102-42.667-42.667-42.667s-42.667 19.102-42.667 42.667v0.427c0 23.565 19.102 42.667 42.667 42.667zM810.667 528.892c28.646 9.425 61.158 6.243 88.41-11.477 47.689-31.019 61.205-94.822 30.191-142.511l-227.456-349.743c-18.509-28.459-47.565-48.401-80.777-55.437l-48.9-10.359c-11.072-2.347-22.618-0.201-32.107 5.969-9.485 6.17-16.132 15.855-18.479 26.927l-6.157 29.073h-174.059c-33.948 0-66.505 13.487-90.51 37.491s-37.49 56.559-37.49 90.509v597.333c0 33.948 13.486 66.505 37.49 90.51s56.562 37.49 90.51 37.49h341.333c33.946 0 66.505-13.486 90.509-37.49s37.491-56.562 37.491-90.51v-217.775zM341.333 789.333c-11.316 0-22.168-4.495-30.17-12.497s-12.497-18.854-12.497-30.17v-597.333c0-11.315 4.495-22.17 12.497-30.17s18.854-12.497 30.17-12.497h173.154c3.447 10.782 8.341 21.154 14.618 30.81l196.928 302.797c-0.461 2.505-0.7 5.090-0.7 7.727v298.667c0 11.316-4.497 22.168-12.497 30.17s-18.854 12.497-30.17 12.497h-85.333c0-23.564-19.102-42.667-42.667-42.667h-85.333c-23.565 0-42.667 19.103-42.667 42.667h-85.333zM596.186 51.686l7.164 1.519c11.072 2.342 20.753 8.99 26.923 18.475l227.46 349.747c5.321 8.179 2.999 19.127-5.18 24.448-8.183 5.325-19.132 3.004-24.452-5.18l-227.456-349.743c-6.17-9.485-8.32-21.035-5.973-32.107l1.515-7.159z" />
<glyph unicode="&#xe921;" glyph-name="chart" d="M95.898 478.362c-16.765-16.559-16.932-43.575-0.373-60.339 16.559-16.768 43.573-16.934 60.338-0.375l160.328 158.357h178.141c22.63 0 44.335 8.99 60.339 24.992l127.996 127.988v-110.349c0-23.564 19.102-42.667 42.667-42.666s42.667 19.103 42.667 42.667l-0.004 213.35c0 23.561-19.098 42.662-42.658 42.666l-213.325 0.036c-23.565 0.004-42.671-19.095-42.675-42.659s19.098-42.67 42.662-42.674l110.34-0.019-128.009-127.998h-178.141c-22.449 0-43.994-8.846-59.965-24.621l-160.328-158.354zM789.338 533.312c-58.91 0-106.667-47.757-106.667-106.667v-298.667c0-58.91 47.757-106.667 106.667-106.667h42.667c58.91 0 106.667 47.757 106.667 106.667v298.667c0 58.91-47.757 106.667-106.667 106.667h-42.667zM768.004 426.645c0 11.785 9.549 21.333 21.333 21.333h42.667c11.78 0 21.333-9.549 21.333-21.333v-298.667c0-11.78-9.553-21.333-21.333-21.333h-42.667c-11.785 0-21.333 9.553-21.333 21.333v298.667zM384.003 341.312c0 58.91 47.758 106.667 106.668 106.667h42.667c58.91 0 106.667-47.757 106.667-106.667v-213.333c0-58.91-47.757-106.667-106.667-106.667h-42.667c-58.91 0-106.668 47.757-106.668 106.667v213.333zM490.671 362.645c-11.785 0-21.333-9.549-21.333-21.333v-213.333c0-11.78 9.549-21.333 21.333-21.333h42.667c11.78 0 21.333 9.553 21.333 21.333v213.333c0 11.785-9.553 21.333-21.333 21.333h-42.667zM192.003 319.979c-58.911 0-106.667-47.757-106.667-106.667v-85.333c0-58.91 47.756-106.667 106.667-106.667h42.667c58.91 0 106.667 47.757 106.667 106.667v85.333c0 58.91-47.756 106.667-106.667 106.667h-42.667zM170.67 213.312c0 11.785 9.551 21.333 21.333 21.333h42.667c11.782 0 21.333-9.549 21.333-21.333v-85.333c0-11.78-9.551-21.333-21.333-21.333h-42.667c-11.782 0-21.333 9.553-21.333 21.333v85.333z" />
<glyph unicode="&#xe922;" glyph-name="chevron_down" d="M478.165 414.178c16.661-16.666 43.674-16.666 60.339 0l152.994 152.992c16.661 16.662 43.674 16.662 60.339 0 16.661-16.663 16.661-43.676 0-60.341l-152.994-152.994c-49.988-49.984-131.034-49.984-181.020 0l-152.993 152.994c-16.663 16.666-16.663 43.679 0 60.341s43.677 16.662 60.34 0l152.995-152.992z" />
<glyph unicode="&#xe923;" glyph-name="chevron_left" d="M474.509 478.17c-16.666-16.661-16.666-43.678 0-60.339l152.99-152.994c16.666-16.661 16.666-43.678 0.004-60.339-16.666-16.661-43.678-16.661-60.343 0l-152.992 152.994c-49.987 49.984-49.987 131.029 0 181.018l152.992 152.994c16.666 16.662 43.678 16.662 60.339 0 16.666-16.663 16.666-43.677 0-60.34l-152.99-152.994z" />
<glyph unicode="&#xe924;" glyph-name="chevron_right" d="M542.161 485.466c16.666-16.661 16.666-43.678 0-60.339l-152.992-152.994c-16.662-16.661-16.662-43.678 0-60.339s43.676-16.661 60.342 0l152.99 152.994c49.988 49.988 49.988 131.034 0 181.019l-152.99 152.994c-16.666 16.662-43.679 16.662-60.342 0s-16.662-43.677 0-60.34l152.992-152.995z" />
<glyph unicode="&#xe925;" glyph-name="chevron_up" d="M538.505 489.156c-16.666 16.661-43.678 16.661-60.339 0l-152.995-152.994c-16.662-16.661-43.677-16.661-60.34 0-16.663 16.666-16.663 43.678 0 60.339l152.993 152.995c49.987 49.987 131.032 49.987 181.020 0l152.994-152.995c16.661-16.661 16.661-43.674 0-60.339-16.666-16.661-43.678-16.661-60.339 0l-152.994 152.994z" />
<glyph unicode="&#xe926;" glyph-name="cinema" d="M213.333 746.667c-47.128 0-85.333-38.205-85.333-85.333v-426.667c0-32.137 17.764-60.122 44.008-74.675 4.733 18.406 21.44 32.009 41.325 32.009h42.667c23.564 0 42.667-19.102 42.667-42.667h512c47.13 0 85.333 38.204 85.333 85.333v426.667c0 47.128-38.204 85.333-85.333 85.333h-597.333zM42.667 661.333c0 94.257 76.41 170.667 170.667 170.667h597.333c94.255 0 170.667-76.41 170.667-170.667v-426.667c0-94.255-76.412-170.667-170.667-170.667h-597.333c-94.257 0-170.667 76.412-170.667 170.667v426.667zM512 350.857l170.001 97.143-170.001 97.144v-194.288zM426.667 581.905c0 49.141 53.086 79.948 95.753 55.568l234.334-133.904c42.995-24.572 42.995-86.566 0-111.138l-234.334-133.905c-42.667-24.38-95.753 6.43-95.753 55.569v267.811zM170.667 661.333c0 23.564 19.103 42.667 42.667 42.667h42.667c23.564 0 42.667-19.103 42.667-42.667v-42.667c0-23.564-19.103-42.667-42.667-42.667h-42.667c-23.564 0-42.667 19.103-42.667 42.667v42.667zM213.333 533.333c-23.564 0-42.667-19.102-42.667-42.667v-42.667c0-23.565 19.103-42.667 42.667-42.667h42.667c23.564 0 42.667 19.102 42.667 42.667v42.667c0 23.565-19.103 42.667-42.667 42.667h-42.667zM170.667 320c0 23.565 19.103 42.667 42.667 42.667h42.667c23.564 0 42.667-19.102 42.667-42.667v-42.667c0-23.565-19.103-42.667-42.667-42.667h-42.667c-23.564 0-42.667 19.102-42.667 42.667v42.667z" />
<glyph unicode="&#xe927;" glyph-name="close" d="M247.163 712.837c16.663 16.662 43.677 16.662 60.34 0l204.497-204.497 204.497 204.497c16.661 16.662 43.678 16.662 60.339 0s16.661-43.677 0-60.34l-204.497-204.497 204.497-204.497c16.661-16.661 16.661-43.678 0-60.339s-43.678-16.661-60.339 0l-204.497 204.497-204.497-204.497c-16.663-16.661-43.677-16.661-60.34 0s-16.662 43.678 0 60.339l204.497 204.497-204.497 204.497c-16.662 16.663-16.662 43.677 0 60.34z" />
<glyph unicode="&#xe928;" glyph-name="coin" d="M369.337 748.396c60.525 25.938 141.161 40.938 227.996 40.938s167.471-14.999 227.998-40.938c30.182-12.936 57.34-29.437 77.568-49.933 20.407-20.68 35.767-47.694 35.767-79.796v-170.667c0-39.646-23.142-71.121-50.927-93.436-28.032-22.519-65.613-39.966-107.507-52.484-52.868-15.851-115.887-24.747-182.899-24.747-67.046 0-130.052 8.947-182.887 24.742-41.878 12.518-79.46 29.969-107.501 52.484-27.78 22.306-50.945 53.786-50.945 93.44v170.667c0 32.102 15.36 59.116 35.769 79.796 20.227 20.496 47.382 36.997 77.568 49.933zM341.333 502.524v-54.524c0-3.866 2.158-13.346 19.039-26.901 16.62-13.346 43.039-26.658 78.514-37.265 43.934-13.133 98.603-21.167 158.447-21.167 59.87 0 114.517 7.996 158.413 21.158 35.494 10.603 61.948 23.927 78.562 37.269 16.866 13.547 19.025 23.031 19.025 26.906v54.511c-21.747-11.925-46.558-21.833-73.101-29.764-52.868-15.851-115.887-24.747-182.899-24.747-67.046 0-130.052 8.947-182.887 24.742-26.542 7.936-51.358 17.847-73.113 29.781zM853.333 618.667c0 3.247-1.353 9.908-11.17 19.856-10.001 10.132-26.586 21.213-50.449 31.439-47.569 20.387-116.267 34.038-194.381 34.038s-146.812-13.651-194.383-34.038c-23.862-10.226-40.446-21.308-50.445-31.439-9.818-9.948-11.172-16.608-11.172-19.856 0-3.864 2.158-13.347 19.039-26.902 16.62-13.345 43.039-26.659 78.514-37.265 43.934-13.134 98.603-21.167 158.447-21.167 59.87 0 114.517 7.997 158.413 21.157 35.494 10.606 61.948 23.93 78.562 37.271 16.866 13.547 19.025 23.028 19.025 26.905zM340.477 572.173c4.696-23.091-10.216-45.619-33.307-50.313-47.091-9.579-84.054-24.154-108.065-40.107-25.111-16.683-28.439-29.218-28.439-33.754 0-3.866 2.158-13.346 19.039-26.901 16.62-13.346 43.039-26.658 78.515-37.265 43.894-13.158 98.577-21.167 158.446-21.167 27.908 0 54.729 1.728 79.927 4.945 23.373 2.987 44.74-13.538 47.727-36.915 2.987-23.373-13.538-44.74-36.915-47.727-28.902-3.695-59.341-5.636-90.739-5.636-67.022 0-130.046 8.9-182.92 24.751-26.53 7.936-51.334 17.847-73.080 29.773v-54.524c0-3.866 2.158-13.346 19.039-26.901 16.62-13.346 43.039-26.658 78.515-37.265 43.894-13.158 98.577-21.167 158.446-21.167 59.844 0 114.513 8.034 158.447 21.167 0 0 0 0 0 0 35.477 10.607 61.892 23.919 78.515 37.265 16.879 13.555 19.038 23.036 19.038 26.901v42.667c0 23.565 19.102 42.667 42.667 42.667s42.667-19.102 42.667-42.667v-42.667c0-39.654-23.164-71.134-50.944-93.44-28.041-22.515-65.621-39.966-107.503-52.484-52.834-15.795-115.84-24.742-182.886-24.742-67.008 0-130.020 8.896-182.888 24.742-41.865 12.518-79.467 29.973-107.501 52.484-27.78 22.306-50.945 53.786-50.945 93.44v170.667c0 46.537 31.552 81.574 66.548 104.828 36.096 23.983 84.466 41.707 138.282 52.652 23.091 4.696 45.618-10.216 50.314-33.307z" />
<glyph unicode="&#xe929;" glyph-name="comment" d="M256 789.333h511.996c47.125 0 85.333-38.205 85.333-85.333v-426.667c0-47.13-38.208-85.333-85.333-85.333h-223.787c-14.281 0-28.331-3.584-40.862-10.419l-225.115-122.79c-20.687-11.285-28.31-37.201-17.026-57.886 11.284-20.689 37.201-28.309 57.888-17.028l225.115 122.79h223.787c94.255 0 170.667 76.412 170.667 170.667v426.667c0 94.257-76.412 170.667-170.667 170.667h-511.996c-94.256 0-170.666-76.41-170.666-170.667v-384c0-94.255 76.41-170.667 170.667-170.667h85.327c23.564 0 42.667 19.102 42.667 42.667s-19.102 42.667-42.667 42.667h-85.327c-47.128 0-85.333 38.204-85.333 85.333v384c0 47.128 38.205 85.333 85.333 85.333zM682.667 618.667h-213.333c-23.565 0-42.667-19.103-42.667-42.667s19.102-42.667 42.667-42.667h213.333c23.565 0 42.667 19.103 42.667 42.667s-19.102 42.667-42.667 42.667zM341.333 448c-23.564 0-42.667-19.102-42.667-42.667s19.102-42.667 42.667-42.667h341.333c23.565 0 42.667 19.102 42.667 42.667s-19.102 42.667-42.667 42.667h-341.333z" />
<glyph unicode="&#xe92a;" glyph-name="comparison" d="M334.098 874.667h-1.793c-34.923 0-63.746 0.001-87.212-1.948-24.378-2.025-46.771-6.371-67.747-17.267v0c-31.171-16.192-56.587-41.608-72.779-72.779-10.896-20.977-15.242-43.37-17.267-67.747-1.949-23.467-1.949-52.29-1.948-87.214v-60.758c-0.001-34.922-0.001-63.748 1.948-87.215 2.025-24.375 6.371-46.771 17.267-67.746 16.192-31.172 41.608-56.589 72.779-72.781 8.493-4.412 17.903-6.938 25.423-8.58 8.147-1.775 17.221-3.153 26.574-4.258 18.727-2.214 40.985-3.618 63.862-4.54 10.786-0.431 21.876-0.764 33.004-1.015-9.99-16.422-7.887-38.127 6.307-52.322 16.663-16.661 43.677-16.661 60.34 0l63.999 64c12.203 12.203 15.855 30.554 9.25 46.498s-22.161 26.338-39.42 26.338c-36.603 0-86.219 0.004-130.054 1.766-21.961 0.883-41.719 2.18-57.266 4.019-7.785 0.917-13.913 1.907-18.417 2.889-2.888 0.631-4.37 1.105-4.835 1.25-0.036 0.013-0.067 0.021-0.091 0.030-15.284 8.111-27.747 20.676-35.728 36.045-3.515 6.763-6.374 16.465-7.952 35.473-1.621 19.516-1.655 44.779-1.655 81.941v57.173c0 37.164 0.034 62.427 1.655 81.943 1.578 19.005 4.437 28.707 7.952 35.473 8.096 15.585 20.804 28.293 36.39 36.39 6.766 3.514 16.468 6.374 35.473 7.952 19.516 1.621 44.78 1.655 81.943 1.655h57.173c37.162 0 62.429-0.034 81.945-1.655 19.004-1.578 28.706-4.438 35.473-7.952 15.364-7.981 27.93-20.445 36.041-35.728 0.009-0.024 0.017-0.054 0.030-0.091 0.149-0.465 0.619-1.947 1.25-4.835 0.981-4.504 1.971-10.633 2.889-18.417 1.839-15.548 3.136-35.305 4.019-57.267 1.493-37.121 1.724-78.389 1.762-112.389l-51.499-51.497c-16.661-16.661-16.661-43.678 0-60.339s43.678-16.661 60.339 0l64 64c8.004 8 12.497 18.854 12.497 30.17v0.349c0 36.271 0 87.437-1.835 133.132-0.922 22.877-2.325 45.136-4.54 63.862-1.105 9.353-2.483 18.426-4.258 26.574-1.638 7.521-4.169 16.93-8.58 25.423-16.192 31.171-41.609 56.587-72.781 72.779-20.975 10.897-43.371 15.243-67.746 17.267-23.467 1.949-52.288 1.948-87.213 1.948h-58.966zM926.17 862.17c-16.661 16.662-43.678 16.662-60.339 0l-21.333-21.333c-16.661-16.663-16.661-43.677 0-60.34s43.678-16.662 60.339 0l21.333 21.333c16.661 16.663 16.661 43.677 0 60.34zM798.178 673.836c16.657 16.666 16.653 43.681-0.013 60.34s-43.682 16.653-60.343-0.012l-42.645-42.667c-16.661-16.666-16.657-43.681 0.013-60.34 16.666-16.659 43.678-16.653 60.339 0.013l42.65 42.667zM286.188 161.826c16.663 16.661 16.664 43.678 0.002 60.339-16.662 16.666-43.677 16.666-60.34 0.004l-42.668-42.667c-16.663-16.661-16.664-43.674-0.003-60.339 16.662-16.661 43.677-16.661 60.34 0l42.668 42.662zM136.837 12.497c16.662 16.661 16.662 43.678 0 60.339s-43.677 16.661-60.34 0l-21.333-21.333c-16.662-16.661-16.662-43.678 0-60.339s43.677-16.661 60.34 0l21.333 21.333zM803.516 573.582c-22.221 7.835-46.588-3.828-54.426-26.051-7.834-22.223 3.827-46.59 26.052-54.428l26.462-9.327c20.463-8.768 36.702-25.19 45.231-45.786 2.359-5.696 4.309-13.845 5.38-29.521 1.092-16.064 1.118-36.727 1.118-67.132v-71.253c0-37.163-0.034-62.43-1.655-81.946-1.579-19.004-4.437-28.706-7.953-35.473-8.094-15.586-20.804-28.292-36.39-36.386-6.767-3.516-16.465-6.374-35.473-7.953-19.516-1.621-44.779-1.655-81.941-1.655h-57.173c-37.163 0-62.43 0.034-81.946 1.655-19.004 1.579-28.706 4.437-35.473 7.953-15.586 8.094-28.292 20.8-36.39 36.386-3.93 7.569-6.972 18.645-8.418 41.984-1.459 23.522-21.709 41.404-45.227 39.945s-41.402-21.705-39.944-45.227c1.718-27.695 5.794-52.8 17.865-76.036 16.192-31.172 41.608-56.589 72.78-72.781 20.975-10.897 43.371-15.241 67.746-17.267 23.467-1.946 52.288-1.946 87.211-1.946h60.762c34.923 0 63.748 0 87.211 1.946 24.38 2.027 46.771 6.37 67.75 17.267 31.168 16.192 56.585 41.609 72.777 72.781 10.897 20.975 15.245 43.371 17.267 67.746 1.95 23.467 1.95 52.288 1.95 87.206v74.517c0 28.578 0 52.164-1.318 71.475-1.365 20.023-4.288 38.545-11.674 56.371-17.323 41.818-50.547 75.043-92.365 92.365-0.704 0.292-1.421 0.566-2.142 0.82l-27.652 9.75z" />
<glyph unicode="&#xe92b;" glyph-name="compass" d="M85.333 490.667c0 212.077 171.923 384 384 384h85.333c212.079 0 384-171.923 384-384v-85.333c0-122.94-57.822-232.397-147.584-302.613-65.169-50.978-147.302-81.387-236.416-81.387h-85.333c-88.985 0-171.008 30.319-236.133 81.165-89.923 70.204-147.867 179.763-147.867 302.835v85.333zM469.333 789.333c-164.949 0-298.667-133.718-298.667-298.667v-85.333c0-95.68 44.945-180.843 115.047-235.571 50.659-39.552 114.33-63.095 183.62-63.095 0 23.565 19.102 42.667 42.667 42.667s42.667-19.102 42.667-42.667c69.389 0 133.146 23.612 183.842 63.266 69.973 54.737 114.825 139.819 114.825 235.401v85.333c0 164.949-133.717 298.667-298.667 298.667 0-23.564-19.102-42.667-42.667-42.667s-42.667 19.103-42.667 42.667zM691.503 627.503c12.070-12.069 15.782-30.169 9.446-46.016l-85.333-213.334c-4.339-10.842-12.928-19.43-23.77-23.77l-213.334-85.333c-15.847-6.336-33.947-2.624-46.016 9.446s-15.784 30.17-9.445 46.016l85.333 213.333c4.337 10.841 12.928 19.432 23.769 23.769l213.333 85.333c15.846 6.339 33.946 2.624 46.016-9.445zM480.823 479.177l-41.566-103.919 103.919 41.566 41.566 103.919-103.919-41.566z" />
<glyph unicode="&#xe92c;" glyph-name="confirmation" d="M487.006 832h49.988l35.345-35.346c13.542-13.543 22.063-31.171 24.363-49.987h-170.035v24.994l60.339 60.34zM536.994 917.333h-49.988c-22.63 0-44.335-8.99-60.339-24.994l-17.673-17.673h-110.327c-94.257 0-170.667-76.41-170.667-170.667v-512c0-94.255 76.41-170.667 170.667-170.667h426.667c94.255 0 170.667 76.412 170.667 170.667v512c0 94.257-76.412 170.667-170.667 170.667h-110.327l-17.673 17.673c-16.004 16.003-37.709 24.994-60.339 24.994zM298.667 789.333h44.517c-1.221-5.767-1.85-11.688-1.85-17.673v-67.66c0-23.564 19.103-42.667 42.667-42.667h256c23.565 0 42.667 19.102 42.667 42.667v32.314c0 18.178-2.901 36.058-8.444 53.019h51.11c47.13 0 85.333-38.205 85.333-85.333v-512c0-47.13-38.204-85.333-85.333-85.333h-426.667c-47.128 0-85.333 38.204-85.333 85.333v512c0 47.128 38.205 85.333 85.333 85.333zM716.484 507.319c14.37 18.675 10.876 45.465-7.804 59.832-18.675 14.368-45.466 10.873-59.831-7.804l-180.847-235.102-72.558 87.070c-15.085 18.103-41.99 20.548-60.092 5.461-18.103-15.083-20.549-41.988-5.463-60.092l106.668-128c8.29-9.95 20.659-15.595 33.609-15.343 12.954 0.252 25.088 6.374 32.986 16.644l213.333 277.333z" />
<glyph unicode="&#xe92d;" glyph-name="contact" d="M176.044 746.667c18.946 73.61 85.766 128 165.29 128h426.667c94.255 0 170.667-76.41 170.667-170.667v-512c0-94.255-76.412-170.667-170.667-170.667h-426.667c-79.524 0-146.344 54.391-165.29 128h-48.044c-23.564 0-42.667 19.102-42.667 42.667s19.103 42.667 42.667 42.667h42.667v426.667h-42.667c-23.564 0-42.667 19.103-42.667 42.667s19.103 42.667 42.667 42.667h48.044zM341.333 789.333c-47.128 0-85.333-38.205-85.333-85.333v-512c0-47.13 38.205-85.333 85.333-85.333h426.667c47.13 0 85.333 38.204 85.333 85.333v512c0 47.128-38.204 85.333-85.333 85.333h-426.667zM554.667 661.333c-19.29 0-42.667-15.158-42.667-50.667 0-23.339 5.952-44.972 15.083-59.338 8.546-13.45 17.681-17.995 27.584-17.995s19.038 4.545 27.584 17.995c9.131 14.366 15.083 35.999 15.083 59.338 0 35.509-23.377 50.667-42.667 50.667zM426.667 610.666c0 83.010 61.956 136 128 136s128-52.991 128-136c0-35.92-8.811-74.287-28.395-105.105-20.164-31.735-53.7-57.562-99.605-57.562s-79.441 25.826-99.605 57.562c-19.584 30.818-28.395 69.185-28.395 105.105zM390.566 234.667h328.201c-9.574 27.853-29.295 47.735-56.102 61.739-30.925 16.158-70.127 23.595-107.998 23.595s-77.073-7.437-107.998-23.595c-26.808-14.003-46.527-33.886-56.103-61.739zM725.333 234.667h-0.004c0.098 0.021 0.102 0 0.004 0zM384.003 234.667h-0.003c-0.098 0-0.093 0.021 0.003 0zM407.157 372.041c46.317 24.196 100.005 33.293 147.51 33.293s101.193-9.097 147.511-33.293c47.253-24.687 87.735-65.826 102.558-127.778 13.632-56.973-36.207-94.929-79.403-94.929h-341.333c-43.198 0-93.034 37.956-79.402 94.929 14.823 61.952 55.304 103.091 102.559 127.778z" />
<glyph unicode="&#xe92e;" glyph-name="copy" d="M640.021 874.667c59.703 0 109.76-40.834 123.964-96.032 5.875-22.82-7.863-46.082-30.682-51.955-22.822-5.873-46.084 7.865-51.955 30.685-4.74 18.412-21.504 31.968-41.327 31.968h-426.666c-23.564 0-42.667-19.103-42.667-42.667v-426.667c0-19.823 13.557-36.587 31.968-41.327 22.82-5.871 36.559-29.133 30.685-51.951-5.874-22.822-29.135-36.561-51.955-30.686-55.198 14.204-96.032 64.26-96.032 123.964v426.667c0 70.692 57.307 128 128 128h426.666zM426.667 21.333c-70.692 0-128 57.306-128 128v384c0 70.692 57.308 128 128 128h384c70.694 0 128-57.308 128-128v-384c0-70.694-57.306-128-128-128h-384zM384 149.333c0-23.565 19.103-42.667 42.666-42.667h384c23.565 0 42.667 19.102 42.667 42.667v384c0 23.564-19.102 42.667-42.667 42.667h-384c-23.564 0-42.666-19.102-42.666-42.667v-384z" />
<glyph unicode="&#xe92f;" glyph-name="credit_wallet" d="M529.877 741.644c-115.779-26.603-240.173-55.186-397.121-12.49-1.403 0.382-2.931 0.095-4.099-0.739-0.393-0.281-0.584-0.515-0.656-0.618l-0.001-0.049v-343.748c0.002 0 0.003 0 0.005 0l64-0.009c23.562 0 42.662-19.102 42.662-42.667v-56.021c90.863-8.832 170.791 9.429 255.010 30.417l13.7 3.422c112.188 28.092 234.56 58.726 387.529 18.214 1.506-0.397 3.153-0.077 4.39 0.811 0.427 0.303 0.631 0.559 0.704 0.666v343.826l-42.671 0.005c-23.565 0.003-42.662 19.104-42.662 42.667v47.24c-100.369 10.161-186.705-9.312-277.973-30.279l-2.816-0.648zM514.918 825.765c116.42 26.747 242.953 55.817 404.39 13.496 37.926-9.942 62.025-44.428 62.025-81.313v-419.063c0-61.001-59.588-97.967-112.273-84.015-131.426 34.803-234.859 8.981-348.851-19.482l-9.899-2.47c-117.921-29.385-246.202-58.927-410.102-5.978-35.551 11.486-57.542 44.736-57.542 79.945v420.864c0 60.925 59.589 98.138 112.489 83.747 135.549-36.874 241.683-12.857 358.431 13.964l1.331 0.306zM362.667 533.321c0 82.473 66.859 149.332 149.333 149.332s149.333-66.859 149.333-149.332c0-82.475-66.859-149.333-149.333-149.333s-149.333 66.859-149.333 149.333zM512 597.319c-35.345 0-64-28.654-64-63.999 0-35.349 28.655-64 64-64s64 28.651 64 64c0 35.345-28.655 63.999-64 63.999zM521.532 71.061c-106.091-24.311-220.167-48.981-360.178-17.664-22.996 5.146-37.468 27.955-32.325 50.953s27.955 37.466 50.951 32.324c119.63-26.756 217.067-6.592 322.488 17.566l12.049 2.769c101.487 23.339 211.831 48.721 345.869 26.257 23.241-3.895 38.921-25.894 35.025-49.135-3.891-23.241-25.89-38.921-49.131-35.025-117.069 19.618-212.804-2.351-316.211-26.086l-8.538-1.958z" />
<glyph unicode="&#xe930;" glyph-name="customer_club" d="M384 691.451c0 61.522 41.001 97.882 85.333 97.882s85.333-36.361 85.333-97.882c0-39.285-4.587-82.013-18.982-113.446-6.946-15.165-15.39-25.949-25.075-32.956-9.246-6.688-22.029-11.716-41.276-11.716s-32.030 5.028-41.276 11.716c-9.685 7.007-18.13 17.791-25.076 32.956-14.397 31.433-18.982 74.161-18.982 113.446zM469.333 874.667c-97.053 0-170.667-80.359-170.667-183.216 0-42.904 4.558-100.568 26.733-148.98 11.34-24.757 28.038-48.757 52.639-66.558 25.041-18.116 55.686-27.913 91.295-27.913s66.253 9.796 91.294 27.913c24.602 17.801 41.301 41.801 52.642 66.558 22.174 48.412 26.731 106.077 26.731 148.98 0 102.857-73.613 183.216-170.667 183.216zM213.333 149.333c0 62.135 18.473 101.837 48.977 127.185 31.996 26.581 84.459 43.482 164.356 43.482 23.565 0 42.667 19.102 42.667 42.667s-19.102 42.667-42.667 42.667c-89.765 0-165.302-18.658-218.89-63.185-55.080-45.764-79.776-112.725-79.776-192.815 0-70.694 57.308-128 128-128h213.333c23.565 0 42.667 19.102 42.667 42.667s-19.102 42.667-42.667 42.667h-213.333c-23.564 0-42.667 19.102-42.667 42.667zM783.322 427.268c-7.706 12.855-21.594 20.727-36.578 20.732-14.989 0.004-28.881-7.851-36.595-20.702l-53.922-89.783-108.574-18.095c-14.929-2.487-27.426-12.702-32.836-26.837-5.406-14.14-2.923-30.084 6.532-41.903l73.434-91.789-18.202-109.21c-2.462-14.758 2.991-29.73 14.37-39.454 11.375-9.719 27.012-12.77 41.207-8.038l114.509 38.17 114.509-38.17c14.195-4.732 29.833-1.681 41.207 8.038 11.379 9.724 16.832 24.695 14.37 39.454l-18.202 109.21 73.434 91.789c9.455 11.819 11.938 27.763 6.532 41.903-5.41 14.135-17.907 24.35-32.836 26.837l-108.557 18.091-53.803 89.758zM729.382 293.581l17.31 28.821 17.242-28.766c12.864-21.453 34.492-36.186 59.162-40.299l36.826-6.135-28.002-35.004c-15.151-18.935-21.525-43.422-17.54-67.337l6.554-39.309-47.279 15.761c-17.519 5.837-36.454 5.837-53.973 0l-47.279-15.761 6.554 39.309c3.985 23.915-2.389 48.401-17.54 67.337l-28.002 35.004 36.843 6.14c24.653 4.109 46.263 18.816 59.127 40.239z" />
<glyph unicode="&#xe931;" glyph-name="dashboard" d="M170.667 832c-23.564 0-42.667-19.103-42.667-42.667v-42.667c0-23.564 19.103-42.667 42.667-42.667h42.667c23.564 0 42.667 19.103 42.667 42.667v42.667c0 23.564-19.103 42.667-42.667 42.667h-42.667zM533.333 832h-42.667c-35.345 0-64-28.654-64-64v-42.667c0-35.346 28.655-64 64-64h42.667c35.345 0 64 28.654 64 64v42.667c0 35.346-28.655 64-64 64zM490.667 533.333c-35.345 0-64-28.655-64-64v-42.667c0-35.345 28.655-64 64-64h42.667c35.345 0 64 28.655 64 64v42.667c0 35.345-28.655 64-64 64h-42.667zM789.333 533.333c-35.345 0-64-28.655-64-64v-42.667c0-35.345 28.655-64 64-64h42.667c35.345 0 64 28.655 64 64v42.667c0 35.345-28.655 64-64 64h-42.667zM192 533.333c-35.346 0-64-28.655-64-64v-42.667c0-35.345 28.654-64 64-64h42.667c35.346 0 64 28.655 64 64v42.667c0 35.345-28.654 64-64 64h-42.667zM490.667 234.667c-35.345 0-64-28.655-64-64v-42.667c0-35.345 28.655-64 64-64h42.667c35.345 0 64 28.655 64 64v42.667c0 35.345-28.655 64-64 64h-42.667zM170.667 192c-23.564 0-42.667-19.102-42.667-42.667v-42.667c0-23.565 19.103-42.667 42.667-42.667h42.667c23.564 0 42.667 19.102 42.667 42.667v42.667c0 23.565-19.103 42.667-42.667 42.667h-42.667zM810.667 192c-23.565 0-42.667-19.102-42.667-42.667v-42.667c0-23.565 19.102-42.667 42.667-42.667h42.667c23.565 0 42.667 19.102 42.667 42.667v42.667c0 23.565-19.102 42.667-42.667 42.667h-42.667zM810.667 832c-23.565 0-42.667-19.103-42.667-42.667v-42.667c0-23.564 19.102-42.667 42.667-42.667h42.667c23.565 0 42.667 19.103 42.667 42.667v42.667c0 23.564-19.102 42.667-42.667 42.667h-42.667z" />
<glyph unicode="&#xe932;" glyph-name="day" d="M321.487 892.55c21.659 9.283 46.742-0.751 56.024-22.409l18.286-42.667c9.283-21.659-0.751-46.742-22.409-56.024s-46.742 0.751-56.024 22.41l-18.286 42.667c-9.282 21.659 0.751 46.742 22.41 56.024zM702.519 892.55c21.658-9.282 31.693-34.365 22.409-56.024l-18.287-42.667c-9.28-21.659-34.364-31.692-56.021-22.41-21.662 9.283-31.693 34.365-22.413 56.024l18.287 42.667c9.284 21.659 34.364 31.692 56.026 22.409zM67.45 638.522c9.283 21.659 34.365 31.692 56.024 22.41l42.667-18.286c21.659-9.282 31.692-34.365 22.409-56.024s-34.365-31.692-56.024-22.41l-42.667 18.286c-21.659 9.282-31.692 34.365-22.41 56.024zM955.499 637.747c10.539-21.076 1.997-46.705-19.081-57.243l-42.667-21.333c-21.077-10.538-46.707-1.995-57.246 19.081-10.534 21.076-1.993 46.705 19.085 57.243l42.667 21.333c21.073 10.538 46.703 1.996 57.242-19.081zM188.55 309.376c9.283-21.658-0.751-46.741-22.409-56.021l-42.667-18.287c-21.659-9.284-46.742 0.751-56.024 22.409s0.751 46.741 22.41 56.026l42.667 18.283c21.659 9.284 46.742-0.751 56.024-22.409zM512 661.333c-117.821 0-213.333-95.513-213.333-213.333 0-71.347 34.98-134.519 88.914-173.321 19.128-13.76 23.48-40.422 9.719-59.55s-40.424-23.479-59.552-9.719c-75.264 54.144-124.414 142.626-124.414 242.59 0 164.948 133.717 298.666 298.667 298.666 139.226 0 256.102-95.224 289.254-224.034 5.875-22.818-7.863-46.080-30.686-51.951-22.818-5.875-46.080 7.863-51.955 30.682-23.684 92.023-107.268 159.97-206.613 159.97zM643.802 224.175c13.615 55.893 62.814 95.825 124.198 95.825 72.055 0 128-55.134 128-128v-5.022c0-67.917-55.061-122.978-122.982-122.978h-218.351c-23.565 0-42.667 19.102-42.667 42.667s19.102 42.667 42.667 42.667c48.977 0 80.41 39.040 89.135 74.842zM768 405.333c-100.476 0-184.115-66.586-207.108-160.956-0.943-3.874-2.927-6.933-4.719-8.602-0.815-0.755-1.37-1.028-1.532-1.097l-0.026-0.013c-70.669-0.030-127.949-57.327-127.949-128 0-70.694 57.306-128 128-128h218.351c115.051 0 208.316 93.265 208.316 208.311v5.022c0 120.388-94.545 213.333-213.333 213.333z" />
<glyph unicode="&#xe933;" glyph-name="delete" d="M362.667 789.333c0 47.128 38.205 85.333 85.333 85.333h128c47.13 0 85.333-38.205 85.333-85.333v-42.667h192c23.565 0 42.667-19.103 42.667-42.667s-19.102-42.667-42.667-42.667v-213.333c0-1.574-0.085-3.149-0.26-4.71l-30.016-270.135c-9.604-86.434-82.658-151.821-169.621-151.821h-72.529c-5.914 0-11.755 0.303-17.519 0.892-2.816-0.585-5.734-0.892-8.721-0.892h-184.101c-86.963 0-160.020 65.387-169.623 151.821l-30.015 270.135c-0.174 1.562-0.261 3.136-0.261 4.71v213.333c-23.564 0-42.667 19.103-42.667 42.667s19.103 42.667 42.667 42.667h192v42.667zM384 661.333h-128v-210.97l29.754-267.789c4.802-43.213 41.33-75.908 84.812-75.908h62.51c-11.792 20.399-19.508 43.533-21.99 68.352l-26.874 268.736c-0.141 1.412-0.212 2.829-0.212 4.245v213.333zM469.333 661.333v-211.204l26.662-266.62c4.361-43.622 41.071-76.843 84.911-76.843h72.529c43.482 0 80.009 32.695 84.809 75.908l29.756 267.789v210.97h-298.667zM448 746.667h128v42.667h-128v-42.667z" />
<glyph unicode="&#xe934;" glyph-name="delete_account" d="M594.534 893.982c17.404 15.889 44.39 14.662 60.279-2.74l102.054-111.776 102.059 111.776c15.889 17.402 42.876 18.628 60.275 2.74 17.404-15.889 18.628-42.876 2.739-60.277l-107.298-117.517 107.298-117.517c15.889-17.402 14.665-44.389-2.739-60.277-17.399-15.889-44.386-14.66-60.275 2.74l-102.059 111.776-102.054-111.776c-15.889-17.4-42.876-18.629-60.279-2.74-17.399 15.889-18.628 42.876-2.739 60.277l107.298 117.517-107.298 117.517c-15.889 17.402-14.66 44.389 2.739 60.277zM356.173 624.759c-46.631 0-90.898-42.656-90.898-103.62 0-60.962 44.267-103.616 90.898-103.616 46.634 0 90.897 42.65 90.897 103.616s-44.263 103.62-90.897 103.62zM179.942 521.139c0 100.62 75.332 188.954 176.232 188.954 100.902 0 176.23-88.334 176.23-188.954s-75.328-188.949-176.23-188.949c-100.899 0-176.232 88.329-176.232 188.949zM267.13 185.903c-71.22 0-135.421-64.491-135.421-152.38v-48.764c0-23.565-19.102-42.667-42.667-42.667s-42.667 19.102-42.667 42.667v48.764c0 127.548 95.264 237.713 220.754 237.713h178.088c125.487 0 220.753-110.165 220.753-237.713v-48.764c0-23.565-19.102-42.667-42.667-42.667s-42.667 19.102-42.667 42.667v48.764c0 87.889-64.201 152.38-135.42 152.38h-178.088z" />
<glyph unicode="&#xe935;" glyph-name="destination_card" d="M213.333 832h597.333c70.694 0 128-57.308 128-128v-128c0-23.564-19.102-42.667-42.667-42.667h-725.333v-213.333c0-23.565 19.103-42.667 42.667-42.667h234.667c23.565 0 42.667-19.102 42.667-42.667s-19.102-42.667-42.667-42.667h-234.667c-70.692 0-128 57.306-128 128v384c0 70.692 57.308 128 128 128zM170.667 661.333h682.667v42.667c0 23.564-19.102 42.667-42.667 42.667h-597.333c-23.564 0-42.667-19.103-42.667-42.667v-42.667zM938.667 448c14.157 0 27.392-7.023 35.332-18.748 7.936-11.721 9.54-26.62 4.284-39.765l-36.331-90.82 36.331-90.82c5.257-13.146 3.652-28.045-4.284-39.765-7.94-11.725-21.175-18.748-35.332-18.748h-298.667v-128c0-23.565-19.102-42.667-42.667-42.667s-42.667 19.102-42.667 42.667v384c0 23.565 19.102 42.667 42.667 42.667h341.333zM640 362.667v-128h235.648l-19.264 48.154c-4.066 10.172-4.066 21.521 0 31.693l19.264 48.154h-235.648z" />
<glyph unicode="&#xe936;" glyph-name="disabled" d="M426.667 789.331c-23.563 0-42.665-19.103-42.665-42.667s19.103-42.667 42.665-42.667c23.565 0 42.667 19.102 42.667 42.667s-19.102 42.667-42.667 42.667zM298.668 746.664c0 70.692 57.308 128 127.999 128 70.694 0 128-57.308 128-128s-57.306-128-128-128c-70.691 0-127.999 57.307-127.999 128zM367.671 572.745c15.943 6.604 34.295 2.953 46.498-9.249l30.17-30.17h195.661c23.565 0 42.667-19.102 42.667-42.667s-19.102-42.667-42.667-42.667h-213.335v-85.333h229.629c32.324 0 61.871-18.261 76.326-47.172l78.323-156.646 28.894 9.63c22.357 7.45 46.519-4.629 53.973-26.987 7.45-22.353-4.634-46.515-26.987-53.969l-28.894-9.63c-40.286-13.427-84.318 4.809-103.309 42.79l-78.327 156.651h-229.629c-47.128 0-85.333 38.204-85.333 85.333v170.667c0 17.258 10.395 32.816 26.339 39.42zM290.886 409.058c13.567 19.264 8.947 45.884-10.319 59.447-19.267 13.568-45.884 8.947-59.451-10.317-31.78-45.129-50.449-100.211-50.449-159.526 0-153.165 124.166-277.333 277.332-277.333 86.14 0 163.127 39.322 213.926 100.834 15.006 18.167 12.442 45.060-5.73 60.066-18.167 15.006-45.060 12.442-60.066-5.73-35.285-42.722-88.521-69.837-148.13-69.837-106.037 0-191.999 85.965-191.999 192 0 41.161 12.902 79.177 34.885 110.396z" />
<glyph unicode="&#xe937;" glyph-name="discount" d="M666.304 787.257c-4.821 8.865-15.198 13.137-24.866 10.237l-117.867-35.354c-7.936-2.38-16.393-2.399-24.341-0.053l-118.016 34.841c-9.68 2.858-20.038-1.459-24.823-10.345l-58.345-108.343c-3.928-7.294-9.895-13.287-17.173-17.248l-108.088-58.815c-8.865-4.824-13.137-15.201-10.237-24.868l35.354-117.866c2.38-7.936 2.399-16.393 0.053-24.337l-34.841-118.020c-2.858-9.681 1.459-20.036 10.345-24.823l108.343-58.347c7.295-3.925 13.288-9.894 17.248-17.169l58.816-108.092c4.824-8.862 15.201-13.133 24.868-10.236l117.867 35.354c7.936 2.381 16.393 2.398 24.337 0.055l118.020-34.842c9.677-2.859 20.036 1.459 24.823 10.342l58.342 108.343c3.93 7.296 9.894 13.291 17.173 17.25l108.087 58.816c8.866 4.821 13.137 15.198 10.24 24.866l-35.354 117.867c-2.381 7.936-2.402 16.393-0.055 24.337l34.842 118.020c2.859 9.68-1.459 20.038-10.347 24.823l-108.343 58.345c-7.292 3.928-13.286 9.895-17.246 17.172l-58.816 108.088zM616.922 879.23c48.337 14.499 100.22-6.86 124.339-51.186l52.745-96.936 97.165-52.325c44.433-23.927 66.014-75.717 51.729-124.116l-31.249-105.84 31.706-105.707c14.502-48.337-6.857-100.22-51.183-124.339l-96.939-52.749-52.322-97.161c-23.927-44.433-75.716-66.018-124.117-51.729l-105.839 31.245-105.707-31.706c-48.337-14.498-100.219 6.861-124.34 51.187l-52.747 96.934-97.164 52.326c-44.431 23.927-66.015 75.716-51.727 124.117l31.246 105.839-31.706 105.706c-14.499 48.336 6.86 100.219 51.187 124.339l96.935 52.747 52.325 97.164c23.927 44.431 75.716 66.015 124.116 51.727l105.841-31.246 105.707 31.706zM677.367 613.238c16.661-16.663 16.661-43.677 0-60.34l-270.224-270.223c-16.662-16.661-43.677-16.661-60.34 0s-16.662 43.678 0 60.339l270.22 270.224c16.666 16.662 43.678 16.662 60.343 0zM554.667 341.333c0 23.565 19.102 42.667 42.667 42.667h42.667c23.565 0 42.667-19.102 42.667-42.667v-42.667c0-23.565-19.102-42.667-42.667-42.667h-42.667c-23.565 0-42.667 19.102-42.667 42.667v42.667zM384.001 639.999c-23.564 0-42.667-19.102-42.667-42.667v-42.667c0-23.564 19.102-42.665 42.667-42.665h42.665c23.565 0 42.667 19.102 42.667 42.665v42.667c0 23.564-19.102 42.667-42.667 42.667h-42.665z" />
<glyph unicode="&#xe938;" glyph-name="dislike" d="M853.333 277.333h-239.445l47.915-143.659c8.619-25.941 4.267-54.699-11.733-76.885s-41.941-35.456-69.291-35.456h-68.779c-12.672 0-24.661 5.632-32.811 15.36l-200.533 240.64h-107.989c-47.061 0-85.333 38.272-85.333 85.333v384c0 47.061 38.272 85.333 85.333 85.333h567.765c17.361-0.058 34.295-5.383 48.563-15.271 14.272-9.889 25.203-23.875 31.351-40.11l117.632-313.643c1.788-4.791 2.697-9.865 2.688-14.976v-85.333c0-47.061-38.272-85.333-85.333-85.333zM170.667 362.667h85.333v384h-85.333v-384zM853.333 440.277l-114.901 306.389h-397.099v-411.221l190.635-228.779h48.896l-66.645 199.808c-2.163 6.413-2.769 13.252-1.762 19.942 1.007 6.694 3.597 13.052 7.552 18.543 3.951 5.495 9.161 9.967 15.185 13.047 6.029 3.076 12.706 4.676 19.473 4.659h298.667v77.611z" />
<glyph unicode="&#xe939;" glyph-name="dislike_full" d="M170.667 832h42.667v-554.667h-42.667c-22.632 0-44.337 8.99-60.34 24.994s-24.994 37.709-24.994 60.339v384c0 22.632 8.991 44.337 24.994 60.34s37.708 24.994 60.34 24.994zM853.333 277.333h-298.667l47.872-143.701c4.271-12.826 5.436-26.483 3.396-39.842-2.039-13.363-7.228-26.052-15.13-37.018-7.906-10.965-18.3-19.9-30.332-26.061s-25.357-9.374-38.874-9.378h-9.6l-213.333 232.021v578.645h469.333l166.912-366.763 3.755-17.237v-85.333c0-22.63-8.99-44.335-24.994-60.339s-37.709-24.994-60.339-24.994z" />
<glyph unicode="&#xe93a;" glyph-name="double_room" d="M213.333 704v-223.885c13.757 3.413 28.013 6.549 42.682 9.404-0.010 0.38-0.015 0.764-0.015 1.148v64c0 58.91 47.756 106.667 106.667 106.667h85.333c24.013 0 46.174-7.935 64-21.326 17.826 13.391 39.987 21.326 64 21.326h85.333c58.91 0 106.667-47.756 106.667-106.667v-64c0-0.384-0.004-0.768-0.017-1.148 14.673-2.854 28.928-5.99 42.684-9.404v223.885c0 23.564-19.102 42.667-42.667 42.667h-512c-23.564 0-42.667-19.103-42.667-42.667zM341.333 502.554c41.46 4.783 84.638 7.718 128.004 8.879-0.004 0.188-0.004 0.375-0.004 0.567v42.667c0 11.782-9.553 21.333-21.333 21.333h-85.333c-11.782 0-21.333-9.551-21.333-21.333v-52.113zM554.662 511.433c43.366-1.161 86.545-4.096 128.004-8.879v52.113c0 11.782-9.553 21.333-21.333 21.333h-85.333c-11.78 0-21.333-9.551-21.333-21.333v-42.667c0-0.192 0-0.38-0.004-0.567zM896 448c0-0.619-0.013-1.237-0.038-1.852 28.096-23.181 42.705-58.786 42.705-93.726v-288.422c0-23.565-19.102-42.667-42.667-42.667s-42.667 19.102-42.667 42.667v42.667h-682.667v-42.667c0-23.565-19.103-42.667-42.667-42.667s-42.667 19.102-42.667 42.667v288.422c0 34.94 14.611 70.545 42.706 93.726-0.026 0.614-0.040 1.233-0.040 1.852v256c0 70.692 57.308 128 128 128h512c70.694 0 128-57.308 128-128v-256zM853.333 352.422c0 17.382-9.391 28.843-19.797 32.337-81.583 27.383-200.222 41.907-321.536 41.907-121.313 0-239.955-14.524-321.534-41.907-10.408-3.494-19.799-14.955-19.799-32.337v-160.422h182.083c14.755 25.506 42.332 42.667 73.917 42.667h170.667c31.586 0 59.162-17.161 73.916-42.667h182.084v160.422z" />
<glyph unicode="&#xe93b;" glyph-name="download" d="M715.985 549.347c14.72 18.401 11.738 45.251-6.665 59.971s-45.252 11.735-59.972-6.665l-94.682-118.36v347.708c0 23.564-19.102 42.667-42.667 42.667-23.561 0-42.667-19.103-42.667-42.667v-347.691l-94.682 118.345c-14.721 18.4-41.571 21.382-59.971 6.662s-21.383-41.571-6.662-59.971l104.041-130.043c51.245-64.051 148.662-64.047 199.904 0.009l104.021 130.036zM853.333 362.667v-170.667c0-23.565-19.102-42.667-42.667-42.667h-597.333c-23.564 0-42.667 19.102-42.667 42.667v170.667c0 23.565 19.103 42.667 42.667 42.667h21.335c23.564 0 42.667 19.102 42.667 42.667s-19.102 42.667-42.667 42.667h-21.335c-70.693 0-128-57.306-128-128v-170.667c0-70.69 57.308-128 128-128h597.333c70.694 0 128 57.31 128 128v170.667c0 70.694-57.306 128-128 128h-21.333c-23.561 0-42.667-19.102-42.667-42.667s19.106-42.667 42.667-42.667h21.333c23.565 0 42.667-19.102 42.667-42.667z" />
<glyph unicode="&#xe93c;" glyph-name="downloads" d="M256 874.667c-70.693 0-128-57.308-128-128v-128c0-3.332 0.382-6.575 1.104-9.687-49.757-20.614-83.363-71.647-78.589-128.942l25.184-302.212c7.372-88.452 81.315-156.493 170.077-156.493h223.556c23.565 0 42.667 19.102 42.667 42.667s-19.102 42.667-42.667 42.667h-223.556c-44.381 0-81.353 34.018-85.039 78.246l-25.184 302.212c-2.073 24.875 17.558 46.208 42.519 46.208h760.593c23.565 0 42.667 19.103 42.667 42.667s-19.102 42.667-42.667 42.667h-42.667v42.667c0 70.692-57.306 128-128 128l-254.673 0.002c-7.424 0-14.72 1.937-21.167 5.621l-109.983 62.846c-19.34 11.051-41.23 16.864-63.505 16.864h-62.672zM810.667 618.667h-597.333v128c0 23.564 19.102 42.667 42.667 42.667h62.672c7.425 0 14.722-1.937 21.168-5.621l109.981-62.846c19.341-11.051 41.229-16.864 63.505-16.864l254.673-0.002c23.565 0 42.667-19.103 42.667-42.667v-42.667zM810.667 405.333c0 23.565-19.102 42.667-42.667 42.667s-42.667-19.102-42.667-42.667v-277.333c0-1.293 0.060-2.569 0.171-3.831l-98.001 98.001c-16.661 16.661-43.678 16.661-60.339 0s-16.661-43.678 0-60.339l110.327-110.327c49.988-49.988 131.034-49.988 181.018 0l110.327 110.327c16.661 16.661 16.661 43.678 0 60.339s-43.678 16.661-60.339 0l-98.001-98.001c0.115 1.263 0.171 2.539 0.171 3.831v277.333z" />
<glyph unicode="&#xe93d;" glyph-name="e_health" d="M448 874.667c-47.128 0-85.333-38.205-85.333-85.333v-42.667h-122.761c-60.529 0-112.785-42.4-125.254-101.631l-65.578-311.498c-4.259-20.233-6.406-40.849-6.406-61.525v-80.013c0-94.255 76.41-170.667 170.667-170.667h597.333c94.255 0 170.667 76.412 170.667 170.667v80.013c0 20.676-2.146 41.293-6.409 61.525l-65.574 311.498c-12.471 59.231-64.725 101.631-125.257 101.631h-122.761v42.667c0 47.128-38.204 85.333-85.333 85.333h-128zM308.585 661.333h475.509c20.177 0 37.594-14.133 41.754-33.877l65.574-311.497c3.046-14.451 4.578-29.18 4.578-43.947v-80.013c0-47.13-38.204-85.333-85.333-85.333h-426.667v165.346c0 20.676-2.147 41.293-6.406 61.525l-69.009 327.795zM448 746.667h128v42.667h-128v-42.667zM298.667 272.013v-165.346h-85.333c-47.128 0-85.333 38.204-85.333 85.333v80.013c0 14.767 1.533 29.495 4.576 43.947l65.578 311.497c2.863 13.601 12.020 24.539 24.036 30.029l71.9-341.526c3.043-14.451 4.576-29.18 4.576-43.947zM682.667 490.667c0 23.565-19.102 42.667-42.667 42.667s-42.667-19.102-42.667-42.667v-85.333h-85.333c-23.565 0-42.667-19.102-42.667-42.667s19.102-42.667 42.667-42.667h85.333v-85.333c0-23.565 19.102-42.667 42.667-42.667s42.667 19.102 42.667 42.667v85.333h85.333c23.565 0 42.667 19.102 42.667 42.667s-19.102 42.667-42.667 42.667h-85.333v85.333z" />
<glyph unicode="&#xe93e;" glyph-name="eadl" d="M554.667 853.333v-42.728c107.17-0.491 192.521-4.916 312.158-44.795 22.353-7.451 34.436-31.614 26.987-53.969-5.414-16.231-19.631-27.046-35.575-28.902l118.596-237.192c2.965-5.922 4.506-12.459 4.506-19.081v-14.639c0-51.554-20.271-124.305-91.055-146.005-50.185-15.386-109.039-15.386-159.219 0-70.788 21.7-91.059 94.451-91.059 146.001v14.643c0 6.622 1.54 13.158 4.506 19.081l128 256c0.384 0.773 0.794 1.531 1.22 2.272-74.714 18.151-137.865 20.845-219.063 21.244v-602.926l112.7-16.098c23.326-3.337 39.535-24.947 36.203-48.273-3.332-23.33-24.943-39.539-48.273-36.207l-143.296 20.471-143.301-20.471c-23.327-3.332-44.939 12.877-48.272 36.207-3.332 23.326 12.876 44.937 36.204 48.273l112.702 16.098v602.926c-81.202-0.399-144.354-3.092-219.070-21.244 0.429-0.742 0.837-1.499 1.223-2.272l128-256c2.991-5.982 4.534-12.582 4.504-19.273l-0.067-15.087c-0.229-51.255-20.532-123.477-90.853-145.207-50.139-15.492-108.987-15.59-159.207-0.324-71.281 21.662-91.517 94.976-91.272 146.842l0.067 14.17c0.031 6.558 1.572 13.018 4.504 18.88l118.596 237.193c-15.94 1.856-30.159 12.671-35.569 28.901-7.452 22.355 4.63 46.518 26.985 53.969 119.637 39.879 204.989 44.305 312.16 44.795v42.728c0 23.564 19.102 42.667 42.667 42.667s42.667-19.103 42.667-42.667zM213.324 587.261l-85.381-170.762-0.020-4.203c-0.185-39.219 14.884-59.972 30.753-64.798 33.957-10.317 75.387-10.236 109.199 0.213 15.667 4.843 30.542 25.314 30.714 64.060l0.022 4.911-85.288 170.578zM810.671 587.261l-85.333-170.668v-4.57c0-38.972 14.967-59.584 30.733-64.414 33.886-10.389 75.315-10.389 109.201-0.004 15.765 4.834 30.733 25.446 30.733 64.422v4.565l-85.333 170.668z" />
<glyph unicode="&#xe93f;" glyph-name="edit" d="M759.164 840.83c40.226 40.226 105.446 40.227 145.673 0s40.226-105.447 0-145.673l-295.006-295.008c-24.004-24.004-56.563-37.487-90.509-37.487l-49.988-0.004c-11.315 0-22.17 4.497-30.17 12.497-8 8.004-12.497 18.854-12.497 30.17v49.988c0 33.95 13.487 66.505 37.491 90.511l295.006 295.007zM844.497 780.49c-6.903 6.902-18.091 6.902-24.994 0l-295.006-295.008c-8-8-12.497-18.854-12.497-30.17v-7.317h7.322c11.315 0 22.165 4.493 30.17 12.493l295.006 295.008c6.903 6.902 6.903 18.092 0 24.993zM85.333 618.66c0 94.257 76.41 170.667 170.667 170.667h256c23.565 0 42.667-19.103 42.667-42.667s-19.102-42.667-42.667-42.667h-256c-47.128 0-85.333-38.205-85.333-85.333v-426.669c0-47.125 38.205-85.333 85.333-85.333h426.667c47.13 0 85.333 38.208 85.333 85.333v256c0 23.565 19.102 42.667 42.667 42.667s42.667-19.102 42.667-42.667v-256c0-94.255-76.412-170.667-170.667-170.667h-426.667c-94.257 0-170.667 76.412-170.667 170.667v426.669z" />
<glyph unicode="&#xe940;" glyph-name="email" d="M170.667 448c0 188.513 152.82 341.333 341.333 341.333s341.333-152.82 341.333-341.333v-64c0-35.345-28.655-64-64-64s-64 28.655-64 64v64c0 117.821-95.514 213.333-213.333 213.333s-213.333-95.513-213.333-213.333c0-117.82 95.513-213.333 213.333-213.333 60.407 0 114.953 25.109 153.762 65.455 26.871-39.505 72.192-65.455 123.571-65.455 82.475 0 149.333 66.859 149.333 149.333v64c0 235.642-191.027 426.667-426.667 426.667-235.642 0-426.667-191.025-426.667-426.667 0-235.639 191.025-426.667 426.667-426.667 87.172 0 168.358 26.189 235.964 71.138 19.622 13.047 24.951 39.531 11.904 59.153s-39.531 24.951-59.153 11.904c-54.037-35.925-118.865-56.862-188.715-56.862-188.513 0-341.333 152.819-341.333 341.333zM384 448c0 70.694 57.306 128 128 128s128-57.306 128-128c0-70.694-57.306-128-128-128s-128 57.306-128 128z" />
<glyph unicode="&#xe941;" glyph-name="empty_state" d="M554.667 874.667c0 23.564-19.102 42.667-42.667 42.667s-42.667-19.103-42.667-42.667v-298.667c0-23.564 19.102-42.667 42.667-42.667s42.667 19.103 42.667 42.667v298.667zM490.667 448c-23.565 0-42.667-19.102-42.667-42.667v-42.667c0-23.565 19.102-42.667 42.667-42.667h42.667c23.565 0 42.667 19.102 42.667 42.667v42.667c0 23.565-19.102 42.667-42.667 42.667h-42.667zM357.342 767.617c21.843 8.842 32.382 33.716 23.54 55.558s-33.716 32.382-55.559 23.54c-140.649-56.934-239.991-194.85-239.991-356.071v-85.333c0-212.079 171.923-384 384-384h85.333c212.079 0 384 171.921 384 384v85.333c0 161.221-99.341 299.137-239.991 356.071-21.841 8.841-46.716-1.698-55.556-23.54-8.845-21.842 1.698-46.717 23.539-55.558 109.534-44.338 186.675-151.697 186.675-276.972v-85.333c0-164.949-133.717-298.667-298.667-298.667h-85.333c-164.949 0-298.667 133.717-298.667 298.667v85.333c0 125.274 77.142 232.634 186.676 276.972z" />
<glyph unicode="&#xe942;" glyph-name="error" d="M638.012 801.625c-67.136 83.389-184.887 83.389-252.023 0-44.66-55.473-101.937-135.526-166.842-246.793-72.951-125.060-116.279-230.651-141.7-307.362-32.752-98.837 27.273-196.053 131.097-209.557 69.104-8.986 167.657-16.58 303.457-16.58s234.355 7.595 303.458 16.58c103.825 13.504 163.849 110.72 131.098 209.557-25.421 76.71-68.749 182.302-141.7 307.362-64.905 111.267-122.18 191.32-166.844 246.793zM452.459 748.111c32.977 40.963 86.106 40.963 119.087 0 41.852-51.987 96.734-128.502 159.599-236.278 69.807-119.667 110.75-219.81 134.409-291.204 16.068-48.491-11.012-91.58-61.099-98.095-64.956-8.444-159.791-15.868-292.454-15.868s-227.498 7.424-292.452 15.868c-50.087 6.515-77.168 49.604-61.1 98.095 23.659 71.394 64.6 171.537 134.407 291.204 62.868 107.776 117.748 184.291 159.604 236.278zM554.667 618.668c0 23.564-19.102 42.667-42.667 42.667s-42.667-19.103-42.667-42.667v-213.334c0-23.565 19.102-42.667 42.667-42.667s42.667 19.102 42.667 42.667v213.334zM490.667 277.333c-23.565 0-42.667-19.102-42.667-42.667v-42.667c0-23.565 19.102-42.667 42.667-42.667h42.667c23.565 0 42.667 19.102 42.667 42.667v42.667c0 23.565-19.102 42.667-42.667 42.667h-42.667z" />
<glyph unicode="&#xe943;" glyph-name="error_box" d="M469.333 874.667h85.333c212.079 0 384-171.923 384-384v-85.333c0-212.079-171.921-384-384-384h-85.333c-212.077 0-384 171.921-384 384v85.333c0 212.077 171.923 384 384 384zM414.17 606.17c-16.663 16.662-43.677 16.662-60.34 0s-16.662-43.677 0-60.34l97.831-97.83-97.831-97.83c-16.662-16.661-16.662-43.678 0-60.339s43.677-16.661 60.34 0l97.83 97.83 97.83-97.83c16.661-16.661 43.678-16.661 60.339 0s16.661 43.678 0 60.339l-97.83 97.83 97.83 97.83c16.661 16.663 16.661 43.677 0 60.34s-43.678 16.662-60.339 0l-97.83-97.831-97.83 97.831z" />
<glyph unicode="&#xe944;" glyph-name="error_box_sec" d="M385.905 801.625c67.138 83.389 184.89 83.389 252.026 0 44.659-55.473 101.935-135.526 166.839-246.793 72.951-125.060 116.279-230.651 141.7-307.362 32.755-98.837-27.273-196.053-131.098-209.557-69.103-8.986-167.654-16.58-303.454-16.58-135.802 0-234.355 7.595-303.459 16.58-103.824 13.504-163.849 110.72-131.097 209.557 25.42 76.71 68.749 182.302 141.7 307.362 64.905 111.267 122.182 191.32 166.842 246.793zM554.667 618.668c0 23.564-19.102 42.667-42.667 42.667s-42.667-19.103-42.667-42.667v-213.334c0-23.565 19.102-42.667 42.667-42.667s42.667 19.102 42.667 42.667v213.334zM490.667 277.333c-23.565 0-42.667-19.102-42.667-42.667v-42.667c0-23.565 19.102-42.667 42.667-42.667h42.667c23.565 0 42.667 19.102 42.667 42.667v42.667c0 23.565-19.102 42.667-42.667 42.667h-42.667z" />
<glyph unicode="&#xe945;" glyph-name="exiting" d="M298.667 768c0 35.346 28.654 64 64 64s64-28.654 64-64c0-35.346-28.654-64-64-64s-64 28.654-64 64zM362.667 917.333c-82.475 0-149.333-66.859-149.333-149.333s66.859-149.333 149.333-149.333c82.475 0 149.333 66.859 149.333 149.333s-66.859 149.333-149.333 149.333zM256 576c-70.692 0-128-57.306-128-128v-213.333c0-23.565 19.103-42.667 42.667-42.667h47.668l16.332-130.658v-40.009c0-23.565 19.103-42.667 42.667-42.667s42.667 19.102 42.667 42.667v42.667c0 1.771-0.11 3.537-0.329 5.291l-16.662 133.295c-5.338 42.701-41.639 74.748-84.674 74.748h-5.001v170.667c0 23.565 19.103 42.667 42.667 42.667h224.751c15.735 0 29.542-8.499 36.983-21.363 11.797-20.399 37.901-27.366 58.295-15.569 20.399 11.797 27.366 37.901 15.569 58.295-22.067 38.149-63.42 63.97-110.848 63.97h-224.751zM506.999 277.333c-43.038 0-79.339-32.047-84.675-74.748l-16.662-133.295c-0.219-1.754-0.329-3.52-0.329-5.291v-42.667c0-23.565 19.103-42.667 42.667-42.667s42.667 19.102 42.667 42.667v40.009l16.333 130.658h47.667c23.565 0 42.667 19.102 42.667 42.667s-19.102 42.667-42.667 42.667h-47.667zM819.503 542.17c-16.661 16.662-43.678 16.662-60.339 0s-16.661-43.678 0-60.34l76.497-76.497h-195.661c-23.565 0-42.667-19.102-42.667-42.667s19.102-42.667 42.667-42.667h195.661l-76.497-76.497c-16.661-16.661-16.661-43.678 0-60.339s43.678-16.661 60.339 0l149.333 149.333c16.661 16.661 16.661 43.678 0 60.339l-149.333 149.334z" />
<glyph unicode="&#xe946;" glyph-name="eye" d="M842.846 578.912c0.013-0.017 0.021-0.035 0.034-0.052l60.19-82.003c40.734-55.497 30.276-133.274-23.671-176.043l-98.202-77.845c-157.935-124.343-380.478-124.343-538.414 0l-0.113 0.090-98.084 77.76c-53.943 42.765-64.402 120.538-23.672 176.034l60.186 82.007c0.012 0.017 0.024 0.033 0.036 0.049 163.607 224.175 498.101 224.176 661.711 0.003zM305.705 587.884c-20.388-16.879-39.133-36.652-55.671-59.321l-0.070-0.094-60.256-82.103c-13.577-18.5-10.091-44.425 7.89-58.679l97.97-77.67c0.019-0.017 0.038-0.030 0.058-0.047 126.946-99.9 305.786-99.9 432.728 0.004 0.021 0.013 0.038 0.026 0.060 0.043l97.971 77.67c17.984 14.255 21.47 40.179 7.893 58.679l-60.331 82.197c-16.533 22.659-35.268 42.426-55.646 59.299 4.587-17.405 7.031-35.682 7.031-54.529 0-117.82-95.514-213.333-213.333-213.333s-213.333 95.514-213.333 213.333c0 18.855 2.446 37.138 7.038 54.551zM512 661.333c-70.69 0-128-57.308-128-128 0-70.694 57.309-128 128-128 70.694 0 128 57.306 128 128 0 70.692-57.306 128-128 128z" />
<glyph unicode="&#xe947;" glyph-name="eye_off" d="M883.503 862.17c16.661-16.663 16.661-43.677 0-60.34l-725.333-725.333c-16.663-16.661-43.677-16.661-60.34 0s-16.662 43.678 0 60.339l123.298 123.298-76.543 60.685c-53.943 42.765-64.401 120.538-23.672 176.034l60.185 82.007c0.012 0.017 0.024 0.033 0.036 0.049 118.362 162.179 325.972 206.845 493.502 134.732l148.527 148.528c16.661 16.662 43.678 16.662 60.339 0zM608.269 647.274c-126.374 38.937-272.225-0.823-358.235-118.711l-0.070-0.094-60.256-82.103c-13.577-18.5-10.090-44.425 7.891-58.679l84.271-66.812 326.399 326.399zM783.351 566.107c18.103 15.084 45.009 12.637 60.092-5.466l50.684-60.823c46.037-55.249 37.538-137.57-18.82-182.246l-94.11-74.603c-92.083-72.499-206.148-102.716-316.489-90.688-23.424 2.551-40.344 23.612-37.79 47.040 2.551 23.424 23.612 40.346 47.040 37.79 88.772-9.677 180.395 14.622 254.396 72.862 0.021 0.013 0.038 0.026 0.055 0.043l93.888 74.428c18.786 14.891 21.619 42.33 6.272 60.749l-50.679 60.821c-15.087 18.103-12.638 45.008 5.461 60.093z" />
<glyph unicode="&#xe948;" glyph-name="fast" d="M487.010 846.013c32.004 32.006 75.413 49.987 120.678 49.987h258.146c57.015 0 85.572-68.937 45.252-109.255l-189.41-189.412h186.825c57.015 0 85.572-68.937 45.252-109.257l-496.913-496.913c-12.203-12.203-30.554-15.855-46.498-9.25s-26.339 22.161-26.339 39.42v298.667h-216.994c-76.024 0-114.097 91.917-60.34 145.673l380.34 380.34zM607.689 810.667c-22.63 0-44.335-8.99-60.339-24.994l-380.34-380.34h216.994c47.13 0 85.334-38.204 85.334-85.333v-195.661l387.661 387.661h-186.825c-57.020 0-85.572 68.937-45.257 109.255l189.414 189.412h-206.643z" />
<glyph unicode="&#xe949;" glyph-name="female" d="M512 832c-35.345 0-64-28.654-64-64s28.655-64 64-64c35.345 0 64 28.654 64 64s-28.655 64-64 64zM362.667 768c0 82.475 66.858 149.333 149.333 149.333s149.333-66.859 149.333-149.333c0-82.475-66.859-149.333-149.333-149.333s-149.333 66.859-149.333 149.333zM328.442 473.101c11.966 59.831 64.499 102.899 125.514 102.899h116.087c61.013 0 113.549-43.068 125.513-102.899l71.616-358.067c2.505-12.535-0.738-25.532-8.841-35.418-8.107-9.886-20.215-15.616-32.998-15.616h-85.333v-42.667c0-23.565-19.102-42.667-42.667-42.667s-42.667 19.102-42.667 42.667v42.667c0 47.13 38.204 85.333 85.333 85.333h33.289l-61.406 307.034c-3.989 19.942-21.5 34.3-41.839 34.3h-116.087c-20.339 0-37.849-14.357-41.837-34.3l-61.407-307.034h33.289c47.129 0 85.333-38.204 85.333-85.333v-42.667c0-23.565-19.102-42.667-42.667-42.667s-42.666 19.102-42.666 42.667v42.667h-85.333c-12.783 0-24.892 5.73-32.996 15.616s-11.349 22.882-8.842 35.418l71.613 358.067z" />
<glyph unicode="&#xe94a;" glyph-name="file" d="M483.345 874.667c-33.946 0-66.504-13.486-90.508-37.49l-227.346-227.346c-24.005-24.004-37.49-56.562-37.49-90.508v-369.988c0-70.694 57.308-128 128-128h512c70.694 0 128 57.306 128 128v597.333c0 70.692-57.306 128-128 128h-284.655zM512 597.333v192h256c23.565 0 42.667-19.103 42.667-42.667v-597.333c0-23.565-19.102-42.667-42.667-42.667h-512c-23.564 0-42.667 19.102-42.667 42.667v341.333h192c58.91 0 106.667 47.756 106.667 106.667zM405.333 576h-152.994l174.327 174.327v-152.994c0-11.782-9.551-21.333-21.333-21.333zM341.333 405.333c-23.564 0-42.667-19.102-42.667-42.667s19.103-42.667 42.667-42.667h341.333c23.565 0 42.667 19.102 42.667 42.667s-19.102 42.667-42.667 42.667h-341.333zM298.667 234.667c0-23.565 19.103-42.667 42.667-42.667h341.333c23.565 0 42.667 19.102 42.667 42.667s-19.102 42.667-42.667 42.667h-341.333c-23.564 0-42.667-19.102-42.667-42.667z" />
<glyph unicode="&#xe94b;" glyph-name="filter" d="M806.187 789.333c35.567 0 55.522-40.956 33.6-68.963l-221.662-283.229c-41.122-52.548-63.467-117.35-63.467-184.077v-189.065h-85.333v189.069c0 66.722-22.345 131.524-63.464 184.068l-221.656 283.234c-21.918 28.007-1.964 68.962 33.601 68.962h588.381zM906.987 667.778c65.758 84.021 5.897 206.889-100.8 206.889h-588.381c-106.693 0-166.556-122.865-100.802-206.886l221.656-283.234c29.372-37.53 45.331-83.819 45.331-131.477v-189.069c0-47.13 38.205-85.333 85.334-85.333h85.333c47.13 0 85.333 38.204 85.333 85.333v189.065c0 47.663 15.957 93.952 45.333 131.482l221.662 283.232z" />
<glyph unicode="&#xe94c;" glyph-name="find_my_location" d="M472.615 731.569c0-21.751 17.632-39.385 39.385-39.385s39.385 17.633 39.385 39.385h-78.769zM551.385 920.615c0 21.752-17.632 39.385-39.385 39.385s-39.385-17.633-39.385-39.385h78.769zM472.615-24.615c0-21.752 17.632-39.385 39.385-39.385s39.385 17.632 39.385 39.385h-78.769zM551.385 164.431c0 21.752-17.632 39.385-39.385 39.385s-39.385-17.632-39.385-39.385h78.769zM795.569 487.385c-21.752 0-39.385-17.632-39.385-39.385s17.632-39.385 39.385-39.385v78.769zM984.615 408.615c21.752 0 39.385 17.632 39.385 39.385s-17.632 39.385-39.385 39.385v-78.769zM39.385 487.385c-21.752 0-39.385-17.632-39.385-39.385s17.633-39.385 39.385-39.385v78.769zM228.431 408.615c21.751 0 39.385 17.632 39.385 39.385s-17.633 39.385-39.385 39.385v-78.769zM850.708 448.004c0-187.065-151.647-338.708-338.708-338.708v-78.769c230.565 0 417.477 186.912 417.477 417.477h-78.769zM512 109.296c-187.063 0-338.708 151.643-338.708 338.708h-78.769c0-230.565 186.911-417.477 417.477-417.477v78.769zM173.292 448.004c0 187.062 151.645 338.707 338.708 338.707v78.769c-230.566 0-417.477-186.911-417.477-417.476h78.769zM512 786.71c187.061 0 338.708-151.645 338.708-338.707h78.769c0 230.565-186.912 417.476-417.477 417.476v-78.769zM551.385 731.569v189.046h-78.769v-189.046h78.769zM551.385-24.615v189.046h-78.769v-189.046h78.769zM795.569 408.615h189.046v78.769h-189.046v-78.769zM39.385 408.615h189.046v78.769h-189.046v-78.769zM614.4 448c0-56.552-45.848-102.4-102.4-102.4v-78.769c100.057 0 181.169 81.113 181.169 181.169h-78.769zM512 345.6c-56.552 0-102.4 45.848-102.4 102.4h-78.769c0-100.057 81.113-181.169 181.169-181.169v78.769zM409.6 448c0 56.552 45.848 102.4 102.4 102.4v78.769c-100.057 0-181.169-81.113-181.169-181.169h78.769zM512 550.4c56.552 0 102.4-45.848 102.4-102.4h78.769c0 100.057-81.113 181.169-181.169 181.169v-78.769z" />
<glyph unicode="&#xe94d;" glyph-name="fingerprint" d="M400.009 810.306c34.53 13.976 72.307 21.694 111.991 21.694 164.949 0 298.667-133.718 298.667-298.667v-42.667c0-23.565 19.102-42.667 42.667-42.667s42.667 19.102 42.667 42.667v42.667c0 212.077-171.921 384-384 384-50.846 0-99.482-9.904-144.009-27.929-21.843-8.841-32.382-33.716-23.54-55.558s33.716-32.382 55.558-23.54zM287.989 730.877c15.593 17.667 13.912 44.629-3.755 60.223s-44.629 13.912-60.223-3.755c-59.724-67.667-96.011-156.653-96.011-254.011v-42.667c0-23.565 19.103-42.667 42.667-42.667s42.667 19.102 42.667 42.667v42.667c0 75.775 28.163 144.867 74.656 197.543zM512 746.667c-117.821 0-213.333-95.513-213.333-213.333v-106.667c0-35.345-28.654-64-64-64h-64c-23.564 0-42.667-19.102-42.667-42.667s19.103-42.667 42.667-42.667h64c82.475 0 149.333 66.859 149.333 149.333v106.667c0 70.692 57.306 128 128 128 23.565 0 42.667 19.103 42.667 42.667s-19.102 42.667-42.667 42.667zM696.768 640.031c-11.802 20.397-37.901 27.367-58.3 15.568-20.395-11.799-27.366-37.9-15.565-58.297 10.863-18.784 17.097-40.584 17.097-63.969v-106.667c0-145.963-77.124-273.95-193.045-345.37-20.066-12.361-26.307-38.643-13.948-58.705 12.361-20.066 38.643-26.308 58.705-13.948 140.083 86.306 233.621 241.225 233.621 418.022v106.667c0 38.787-10.389 75.276-28.565 106.698zM554.667 533.333c0 23.564-19.102 42.667-42.667 42.667s-42.667-19.103-42.667-42.667v-106.667c0-129.604-105.064-234.667-234.667-234.667h-64c-23.564 0-42.667-19.102-42.667-42.667s19.103-42.667 42.667-42.667h64c176.731 0 320 143.27 320 320v106.667zM889.737 335.501c3.221 23.343-13.090 44.877-36.433 48.098s-44.877-13.090-48.098-36.433c-0.917-6.66-1.95-13.278-3.093-19.861-15.266-87.834-50.436-168.858-100.745-238.268-13.828-19.081-9.57-45.756 9.51-59.584s45.76-9.57 59.588 9.51c57.737 79.663 98.172 172.762 115.716 273.732 1.314 7.561 2.5 15.164 3.554 22.805z" />
<glyph unicode="&#xe94e;" glyph-name="flash" d="M136.837 883.503c-16.663 16.662-43.677 16.662-60.34 0s-16.662-43.677 0-60.34l42.667-42.667c16.663-16.662 43.677-16.662 60.34 0s16.662 43.677 0 60.34l-42.667 42.667zM947.503 823.163c16.661 16.663 16.661 43.677 0 60.34s-43.678 16.662-60.339 0l-42.667-42.667c-16.661-16.663-16.661-43.677 0-60.34s43.678-16.662 60.339 0l42.667 42.667zM200.837 204.497c16.662 16.661 16.662 43.678 0 60.339s-43.677 16.661-60.34 0l-42.667-42.667c-16.662-16.661-16.662-43.678 0-60.339s43.677-16.661 60.34 0l42.667 42.667zM926.17 161.83c16.661 16.661 16.661 43.678 0 60.339l-42.667 42.667c-16.661 16.661-43.678 16.661-60.339 0s-16.661-43.678 0-60.339l42.667-42.667c16.661-16.661 43.678-16.661 60.339 0zM512 874.667c-188.908 0-341.333-155.355-341.333-343.471 0-91.196 36.187-179.721 100.862-244.399l74.981-74.978c24.005-24.004 37.49-56.563 37.49-90.513v-35.972c0-58.91 47.757-106.667 106.667-106.667h42.667c58.91 0 106.667 47.757 106.667 106.667v35.972c0 33.95 13.487 66.509 37.491 90.513l74.978 74.978c64.678 64.678 100.864 153.203 100.864 244.399 0 188.116-152.427 343.471-341.333 343.471zM256 531.196c0 141.781 115.010 258.138 256 258.138 140.992 0 256-116.356 256-258.138 0-68.834-27.383-135.573-75.87-184.060l-74.978-74.978c-11.793-11.793-22.063-24.823-30.682-38.784-3.349 0.845-6.857 1.293-10.47 1.293h-128c-3.614 0-7.121-0.448-10.47-1.293-8.619 13.961-18.889 26.991-30.68 38.784l-74.981 74.978c-48.484 48.486-75.869 115.226-75.869 184.060zM512 149.333h44.514c-1.225-9.242-1.847-18.603-1.847-28.028v-35.972c0-11.78-9.553-21.333-21.333-21.333h-42.667c-11.78 0-21.333 9.553-21.333 21.333v35.972c0 9.425-0.623 18.786-1.847 28.028h44.514z" />
</font>
</defs>
</svg>
